Loading...
Error

Скачать Супермен / Superman (Ричард Доннер / Richard Donner) [1978, Фантастика, фэнтези, приключения, экранизация, BDRip] [расширенная версия] [Dub] (ТРК "Останкино") + [Orig] Eng торрент без регистрации

 
Статистика раздачи
Размер:  2,19 GB   |    Скачан:  126 раз
Сидов:  1  [  0 KB/s  ]  
 
Автор Сообщение

leon030982

[] 

Супермен / Superman / расширенная версия

Год выпуска: 1978
Страна: США, Великобритания
Жанр: Фантастика, фэнтези, приключения, экранизация
Продолжительность: 02:31:26
Перевод: Профессиональный (дублированный) [ТРК "Останкино"]
Роли дублировали: Михаил Козаков, Леонид Каневский и др.
Cубтитры: нет
Оригинальная аудиодорожка: английский

Режиссер: Ричард Доннер / Richard Donner

В ролях: Кристофер Рив, Марлон Брандо, Джин Хэкмен, Нед Битти, Джеки Купер, Гленн Форд, Тревор Ховард, Марго Киддер, Джек О'Хэллорэн, Валери Перрин, Мария Шелл, Теренс Стэмп, Филлис Такстер, Сюзанна Йорк, Джефф Ист, Марк МакКлюр, Сара Дуглас, Гарри Эндрюс, Васс Андерсон, Джон Холлис, Джеймс Гарбутт, Майкл Говер, Дэвид Нил ст., Уильям Расселл мл., Пенелопа Ли, Джон Стюарт, Алан Каллен, Ли Куигли, Аарон Смолински, Дайан Шерри, Джеф Этчесон, Брэд Флок, Дэвид Петроу

Описание: Экранизация комикса DC Comics о супергерое. Днем он - неприметный сотрудник редакции газеты по имени Кларк Кент. А в остальное время все его знают, как Супермена. Еще будущи малышом, он прибыл на планету Земля с далекого Криптона, чьи минуты были сочтены. Именно тогда, в детстве, Кларк пообещал своему отцу, что будет защищать тех, кто его приютит на Земле, и каждый день ему предоставляется такой шанс. Тем более, пока на планете есть такой злодей, как Лекс Лютор...

Сэмпл

Качество видео: BDRip
Формат видео: AVI
Видео: XviD build 64,720x304 (2.35:1), 23.976 fps, 1668 kbps avg
Аудио 1: Russian AC3 Dolby Digital, 48 kHz, 2/0 (L,R) ch, 192.00 kbps avg
Аудио 2: English AC3 Dolby Digital, 48 kHz, 2/0 (L,R) ch, 192.00 kbps avg
General
Complete name : F:\Superman_1978\Superman.1978.BDRip.Dubl.Ostankino.avi
Format : AVI
Format/Info : Audio Video Interleave
Format profile : OpenDML
File size : 2.19 GiB
Duration : 2h 31mn
Overall bit rate : 2 071 Kbps
Writing application : VirtualDubModRus 1.5.10.2 (build 2542/release)
Writing library : VirtualDubMod build 2542/release
Video
ID : 0
Format : MPEG-4 Visual
Format profile : Advanced Simple@L5
Format settings, BVOP : 2
Format settings, QPel : No
Format settings, GMC : No warppoints
Format settings, Matrix : Custom
Codec ID : XVID
Codec ID/Hint : XviD
Duration : 2h 31mn
Bit rate : 1 669 Kbps
Width : 720 pixels
Height : 304 pixels
Display aspect ratio : 2.35:1
Frame rate : 23.976 fps
Color space : YUV
Chroma subsampling : 4:2:0
Bit depth : 8 bits
Scan type : Progressive
Compression mode : Lossy
Bits/(Pixel*Frame) : 0.318
Stream size : 1.77 GiB (81%)
Writing library : XviD 64
Audio #1
ID : 1
Format : AC-3
Format/Info : Audio Coding 3
Mode extension : CM (complete main)
Format settings, Endianness : Big
Codec ID : 2000
Duration : 2h 31mn
Bit rate mode : Constant
Bit rate : 192 Kbps
Channel(s) : 2 channels
Channel positions : Front: L R
Sampling rate : 48.0 KHz
Bit depth : 16 bits
Compression mode : Lossy
Stream size : 208 MiB (9%)
Alignment : Split accross interleaves
Interleave, duration : 42 ms (1.00 video frame)
Interleave, preload duration : 500 ms
Audio #2
ID : 2
Format : AC-3
Format/Info : Audio Coding 3
Mode extension : CM (complete main)
Format settings, Endianness : Big
Codec ID : 2000
Duration : 2h 31mn
Bit rate mode : Constant
Bit rate : 192 Kbps
Channel(s) : 2 channels
Channel positions : Front: L R
Sampling rate : 48.0 KHz
Bit depth : 16 bits
Compression mode : Lossy
Stream size : 208 MiB (9%)
Alignment : Split accross interleaves
Interleave, duration : 42 ms (1.00 video frame)
Interleave, preload duration : 500 ms



Скачать Супермен.Superman.(Ричард.Доннер.Richard.Donner).[1978.Фантастика.фэнтези.приключения.экранизация.BDRip].[расширенная.версия].[Dub].(ТРК."Останкино").+.[Orig].Eng.torrent без регистрации
Золото ЗОЛОТАЯ РАЗДАЧА! СКАЧАННОЕ НЕ ЗАСЧИТЫВАЕТСЯ! Золото
Дата: Зарегистрирован   [ Тип: внутренний ] Как тут cкачать?
MAGNET ссылка
MAGNET ссылка


Скачать .torrent

11 KB

Статус: проверено DHT
Скачан: торрент - 126 раз, раздача полностью - 17 раз
Размер: 2,19 GB
Оценка:  5 (Голосов: 1)
Поблагодарили: 1
Поделиться ссылкой на эту раздачу с друзьями:
В контактеFacebookОдноклассникиTwitterLivejournalМой МирLiveinternet
 

 
Показать сообщения:    


Вы не можете начинать темы
Вы не можете отвечать на сообщения
Вы не можете редактировать свои сообщения
Вы не можете удалять свои сообщения
Вы не можете голосовать в опросах
Вы не можете прикреплять файлы к сообщениям
Вы можете скачивать файлы