Loading...
Error

Скачать Риццоли и Айлс / Rizzoli & Isles (сезоны 01-04) (Билл Хабер) [2010-2013, драма, детектив, WEB-DLRip] [MVO (SET)]+[Eng] торрент без регистрации

 
Статистика раздачи
Размер:  39,89 GB   |    Скачан:  199 раз
Сидов:  1  [  0 KB/s  ]  
 
Автор Сообщение

МихаНЕзатор

[] 

Информация о фильме
Название: Риццоли и Айлс
Оригинальное название: Rizzoli & Isles
Год выхода: 2010-2013
Жанр: Драма, детектив, криминал, экранизация
Режиссер: Билл Хабер


В ролях: Саша Александер, Энджи Хэрмон, Лоррейн Бракко, Брюс МакГилл, Дженнифер Холлэнд, Джэйсон Блэр, Том Бауэр, Джордан Бриджес, Мариса Рамирез, Кристал Рид, Ли Томпсон Янг, Брайан Гудман, Рик Чэмберс, Райан Джеймс Нолан, Чазз Пальминтери, Майкл Масси, Дэррил Алан Рид, Билли Бёрк, Донни Уолберг, Колин Эглсфилд, Крис Батлер, Джек Конли, Омар Дж. Дорси, Джон Доумен



О фильме: Американский детективный телесериал, основанный на серии книг Тесс Герритсен. В Бостоне, штате Массачусетс, живут и работают две потрясающие женщины: детектив убойного отдела полиции Бостона Джейн Ризолли и старший судмедэксперт Мора Айлс. Они совершенно разные, но дополняют достоинства друг друга, выполняя любимую работу: раскрытие убийств.





Страна: США, Hurdler Productions, Ostar Productions, Warner Horizon Television
Продолжительность: 56 x ~ 00:43:00
Перевод: Профессиональный многоголосый



Файл
Качество: WEB-DLRip
Видео: XviD, ~ 4000 Кбит/с, 720x400
Аудио: Русский, английский (AC3, 2 ch, 192 Кбит/с)

АНОНСЫ ПОПУЛЯРНЫХ РАЗДАЧ

Сезон 1:
01. See One, Do One, Teach One
02. Boston Strangler Redux
03. Sympathy for the Devil
04. She Works Hard for the Money
05. Money for Nothing
06. I Kissed a Girl
07. Born to Run
08. I'm Your Boogie Man
09. The Beast in Me
10. When the Gun Goes Bang, Bang, Bang
Сезон 2:
01. We Don't Need Another Hero / Настоящий герой
02. Living Proof / Живое доказательство
03. Sailor Man / Моряк
04. Brown Eyed Girl / Кареглазая Девочка
05. Don't Hate the Player / Ненавистный игрок
06. Rebel Without a Pause / Конфедераты без границ
07. Bloodlines / Кровные узы
08. My Own Worst Enemy / Мой собственный злейший враг
09. Gone Daddy Gone / Папа, прощай
10. Remember Me / Помни меня
11. Can I Get a Witness? / Кто свидетель?
12. He Ain't Heavy, He's My Brother / Он не мерзавец, он мой брат
13. Seventeen Ain't So Sweet / Снова семнадцать
14. Don't Stop Dancing, Girl / Танцуй, дитя
15. Burning Down the House / Сжечь дотла
Сезон 3:
01. What Doesn't Kill You / То, что нас не убивает
02. Dirty Little Secret / Маленький грязный секрет
03. This Is How a Heart Breaks / Так разбивается сердце
04. Welcome to the Dollhouse / Кукольный Домик
05. Throwing Down the Gauntlet / Бросить перчатку
06. Money Maker / Секс и Деньги
07. Crazy for You / Без ума от тебя
08. Cuts Like a Knife / Острие Ножа
09. Home Town Glory / Местная знаменитость
10. Melt My Heart to Stone / Расплавь мое сердце в камень
11. Class Action Satisfaction / Групповой иск
12. Love the Way You Lie / Мне нравится твоя ложь
13. Virtual Love / Виртуальная страсть
14. Over/Under / Больше, меньше
15. No More Drama in My Life / Никакой больше драмы
Сезон 4:
01. We Are Family / Мы - семья
02. In Over Your Head/ Проблем выше крыши
03. But I Am A Good Girl / Но я хорошая девочка
04. Killer in High Heels / Убийца на шпильках
05. Dance With the Devil / Танец с дьяволом
06. Somebody's Watching Me / Кто-то следит за мной
07. All For One/ Все за одного
08. Cold As Ice/ Холодна как лёд
09. No One Mourns the Wicked / Никто не скорбит по злодею
10. Built for Speed/ Создан для скорости
11. Judge, Jury and Executioner/ Судья, присяжный и палач
12. Partners in Crime/ Соучастники
13. Tears of a Clown
14. Just Push Play
15. Food for Thought
16. You're Gonna Miss Me When I'm Gone

Релиз: CasStudio, AlexFilm
Автор рипа: Guest91
Звук: AlexFilm & TVZ
Озвучивание: телеканал "SET (Sony ТВ)"

Общее
Уникальный идентификатор : 198418927051739146911957906899757413418 (0x95461866832419E0B31ABD75670BB42A)
Полное имя : D:\Kinozal\ROZDACHA104\Rizzoli.and.Isles.(1.sezon.10.serii.iz.10).2010.MPEG-4.WEBDL.720p\Rizzoli.and.Isles.(1.sezon.01.serija.iz.10).2010.MPEG-4.WEBDL.720p.mkv
Формат : Matroska
Версия формата : Version 2
Размер файла : 1,68 Гбайт
Продолжительность : 50 м.
Общий поток : 4711 Кбит/сек
Дата кодирования : UTC 2011-07-15 03:50:02
Программа кодирования : mkvmerge v4.8.0 ('I Got The...') сборка от May 24 2011 03:12:58
Библиотека кодирования : libebml v1.2.0 + libmatroska v1.1.0

Видео
Идентификатор : 1
Формат : AVC
Формат/Информация : Advanced Video Codec
Профиль формата : High@L3.1
Параметр CABAC формата : Нет
Параметр ReFrames формата : 2 кадра
Идентификатор кодека : V_MPEG4/ISO/AVC
Продолжительность : 50 м.
Битрейт : 4041 Кбит/сек
Ширина : 1280 пикселей
Высота : 720 пикселей
Соотношение сторон : 16:9
Частота кадров : 23,976 кадра/сек
Цветовое пространство : YUV
Субдискретизация насыщенности : 4:2:0
Битовая глубина : 8 бит
Тип развёртки : Прогрессивная
Бит/(Пиксели*Кадры) : 0.183
Размер потока : 1,44 Гбайт (86%)
Заголовок : See One, Do One, Teach One
Язык : English
Default : Да
Forced : Нет
Основные цвета : BT.709-5, BT.1361, IEC 61966-2-4, SMPTE RP177
Характеристики трансфера : BT.709-5, BT.1361
Коэффициенты матрицы : BT.709-5, BT.1361, IEC 61966-2-4 709, SMPTE RP177

Аудио #1
Идентификатор : 2
Формат : AC-3
Формат/Информация : Audio Coding 3
Расширение режима : CM (complete main)
Параметр Endianness формата : Big
Идентификатор кодека : A_AC3
Продолжительность : 50 м.
Вид битрейта : Постоянный
Битрейт : 192 Кбит/сек
Каналы : 2 канала
Расположение каналов : Front: L R
Частота : 48,0 КГц
Битовая глубина : 16 бит
Метод сжатия : С потерями
Размер потока : 69,9 Мбайт (4%)
Заголовок : Gravi-TV
Язык : Russian
Default : Да
Forced : Нет

Аудио #2
Идентификатор : 3
Формат : AC-3
Формат/Информация : Audio Coding 3
Расширение режима : CM (complete main)
Параметр Endianness формата : Big
Идентификатор кодека : A_AC3
Продолжительность : 50 м.
Вид битрейта : Постоянный
Битрейт : 384 Кбит/сек
Каналы : 6 каналов
Расположение каналов : Front: L C R, Side: L R, LFE
Частота : 48,0 КГц
Битовая глубина : 16 бит
Метод сжатия : С потерями
Размер потока : 140 Мбайт (8%)
Заголовок : Original
Язык : English
Default : Нет
Forced : Нет

Общее
Уникальный идентификатор : 209047470493006221216401327753556721176 (0x9D45140CEA99DD44BC901AB1A7C0FE18)
Полное имя : D:\Kinozal\ROZDACHA104\Rizzoli.and.Isles.(1.sezon.10.serii.iz.10).2010.MPEG-4.WEBDL.720p\Rizzoli.and.Isles.(1.sezon.02.serija.iz.10).2010.MPEG-4.WEBDL.720p.mkv
Формат : Matroska
Версия формата : Version 2
Размер файла : 1,45 Гбайт
Продолжительность : 42 м.
Общий поток : 4866 Кбит/сек
Дата кодирования : UTC 2011-07-15 03:53:00
Программа кодирования : mkvmerge v4.8.0 ('I Got The...') сборка от May 24 2011 03:12:58
Библиотека кодирования : libebml v1.2.0 + libmatroska v1.1.0

Видео
Идентификатор : 1
Формат : AVC
Формат/Информация : Advanced Video Codec
Профиль формата : High@L3.1
Параметр CABAC формата : Нет
Параметр ReFrames формата : 2 кадра
Идентификатор кодека : V_MPEG4/ISO/AVC
Продолжительность : 42 м.
Битрейт : 4193 Кбит/сек
Ширина : 1280 пикселей
Высота : 720 пикселей
Соотношение сторон : 16:9
Частота кадров : 23,976 кадра/сек
Цветовое пространство : YUV
Субдискретизация насыщенности : 4:2:0
Битовая глубина : 8 бит
Тип развёртки : Прогрессивная
Бит/(Пиксели*Кадры) : 0.190
Размер потока : 1,25 Гбайт (86%)
Заголовок : Boston Strangler Redux
Язык : English
Default : Да
Forced : Нет
Основные цвета : BT.709-5, BT.1361, IEC 61966-2-4, SMPTE RP177
Характеристики трансфера : BT.709-5, BT.1361
Коэффициенты матрицы : BT.709-5, BT.1361, IEC 61966-2-4 709, SMPTE RP177

Аудио #1
Идентификатор : 2
Формат : AC-3
Формат/Информация : Audio Coding 3
Расширение режима : CM (complete main)
Параметр Endianness формата : Big
Идентификатор кодека : A_AC3
Продолжительность : 42 м.
Вид битрейта : Постоянный
Битрейт : 192 Кбит/сек
Каналы : 2 канала
Расположение каналов : Front: L R
Частота : 48,0 КГц
Битовая глубина : 16 бит
Метод сжатия : С потерями
Размер потока : 58,7 Мбайт (4%)
Заголовок : Gravi-TV
Язык : Russian
Default : Да
Forced : Нет

Аудио #2
Идентификатор : 3
Формат : AC-3
Формат/Информация : Audio Coding 3
Расширение режима : CM (complete main)
Параметр Endianness формата : Big
Идентификатор кодека : A_AC3
Продолжительность : 42 м.
Вид битрейта : Постоянный
Битрейт : 384 Кбит/сек
Каналы : 6 каналов
Расположение каналов : Front: L C R, Side: L R, LFE
Частота : 48,0 КГц
Битовая глубина : 16 бит
Метод сжатия : С потерями
Размер потока : 117 Мбайт (8%)
Заголовок : Original
Язык : English
Default : Нет
Forced : Нет

Общее
Уникальный идентификатор : 227652698089060649119043610433030163610 (0xAB445097D942A91987A09DD2485F8C9A)
Полное имя : D:\Kinozal\ROZDACHA104\Rizzoli.and.Isles.(1.sezon.10.serii.iz.10).2010.MPEG-4.WEBDL.720p\Rizzoli.and.Isles.(1.sezon.03.serija.iz.10).2010.MPEG-4.WEBDL.720p.mkv
Формат : Matroska
Версия формата : Version 2
Размер файла : 1,39 Гбайт
Продолжительность : 42 м.
Общий поток : 4658 Кбит/сек
Дата кодирования : UTC 2011-07-15 03:57:11
Программа кодирования : mkvmerge v4.8.0 ('I Got The...') сборка от May 24 2011 03:12:58
Библиотека кодирования : libebml v1.2.0 + libmatroska v1.1.0

Видео
Идентификатор : 1
Формат : AVC
Формат/Информация : Advanced Video Codec
Профиль формата : High@L3.1
Параметр CABAC формата : Нет
Параметр ReFrames формата : 2 кадра
Идентификатор кодека : V_MPEG4/ISO/AVC
Продолжительность : 42 м.
Битрейт : 3990 Кбит/сек
Ширина : 1280 пикселей
Высота : 720 пикселей
Соотношение сторон : 16:9
Частота кадров : 23,976 кадра/сек
Цветовое пространство : YUV
Субдискретизация насыщенности : 4:2:0
Битовая глубина : 8 бит
Тип развёртки : Прогрессивная
Бит/(Пиксели*Кадры) : 0.181
Размер потока : 1,19 Гбайт (86%)
Заголовок : Sympathy for the Devil
Язык : English
Default : Да
Forced : Нет
Основные цвета : BT.709-5, BT.1361, IEC 61966-2-4, SMPTE RP177
Характеристики трансфера : BT.709-5, BT.1361
Коэффициенты матрицы : BT.709-5, BT.1361, IEC 61966-2-4 709, SMPTE RP177

Аудио #1
Идентификатор : 2
Формат : AC-3
Формат/Информация : Audio Coding 3
Расширение режима : CM (complete main)
Параметр Endianness формата : Big
Идентификатор кодека : A_AC3
Продолжительность : 42 м.
Вид битрейта : Постоянный
Битрейт : 192 Кбит/сек
Каналы : 2 канала
Расположение каналов : Front: L R
Частота : 48,0 КГц
Битовая глубина : 16 бит
Метод сжатия : С потерями
Размер потока : 58,5 Мбайт (4%)
Заголовок : Gravi-TV
Язык : Russian
Default : Да
Forced : Нет

Аудио #2
Идентификатор : 3
Формат : AC-3
Формат/Информация : Audio Coding 3
Расширение режима : CM (complete main)
Параметр Endianness формата : Big
Идентификатор кодека : A_AC3
Продолжительность : 42 м.
Вид битрейта : Постоянный
Битрейт : 384 Кбит/сек
Каналы : 6 каналов
Расположение каналов : Front: L C R, Side: L R, LFE
Частота : 48,0 КГц
Битовая глубина : 16 бит
Метод сжатия : С потерями
Размер потока : 117 Мбайт (8%)
Заголовок : Original
Язык : English
Default : Нет
Forced : Нет

Общее
Уникальный идентификатор : 223964568125880583300516575199581418577 (0xA87E01BF2FFC32C3A2E5657B1663B451)
Полное имя : D:\Kinozal\ROZDACHA104\Rizzoli.and.Isles.(1.sezon.10.serii.iz.10).2010.MPEG-4.WEBDL.720p\Rizzoli.and.Isles.(1.sezon.04.serija.iz.10).2010.MPEG-4.WEBDL.720p.mkv
Формат : Matroska
Версия формата : Version 2
Размер файла : 1,38 Гбайт
Продолжительность : 42 м.
Общий поток : 4625 Кбит/сек
Дата кодирования : UTC 2011-07-15 04:05:10
Программа кодирования : mkvmerge v4.8.0 ('I Got The...') сборка от May 24 2011 03:12:58
Библиотека кодирования : libebml v1.2.0 + libmatroska v1.1.0

Видео
Идентификатор : 1
Формат : AVC
Формат/Информация : Advanced Video Codec
Профиль формата : High@L3.1
Параметр CABAC формата : Нет
Параметр ReFrames формата : 2 кадра
Идентификатор кодека : V_MPEG4/ISO/AVC
Продолжительность : 42 м.
Битрейт : 3957 Кбит/сек
Ширина : 1280 пикселей
Высота : 720 пикселей
Соотношение сторон : 16:9
Частота кадров : 23,976 кадра/сек
Цветовое пространство : YUV
Субдискретизация насыщенности : 4:2:0
Битовая глубина : 8 бит
Тип развёртки : Прогрессивная
Бит/(Пиксели*Кадры) : 0.179
Размер потока : 1,18 Гбайт (86%)
Заголовок : She Works Hard for the Money
Язык : English
Default : Да
Forced : Нет
Основные цвета : BT.709-5, BT.1361, IEC 61966-2-4, SMPTE RP177
Характеристики трансфера : BT.709-5, BT.1361
Коэффициенты матрицы : BT.709-5, BT.1361, IEC 61966-2-4 709, SMPTE RP177

Аудио #1
Идентификатор : 2
Формат : AC-3
Формат/Информация : Audio Coding 3
Расширение режима : CM (complete main)
Параметр Endianness формата : Big
Идентификатор кодека : A_AC3
Продолжительность : 42 м.
Вид битрейта : Постоянный
Битрейт : 192 Кбит/сек
Каналы : 2 канала
Расположение каналов : Front: L R
Частота : 48,0 КГц
Битовая глубина : 16 бит
Метод сжатия : С потерями
Размер потока : 58,6 Мбайт (4%)
Заголовок : Gravi-TV
Язык : Russian
Default : Да
Forced : Нет

Аудио #2
Идентификатор : 3
Формат : AC-3
Формат/Информация : Audio Coding 3
Расширение режима : CM (complete main)
Параметр Endianness формата : Big
Идентификатор кодека : A_AC3
Продолжительность : 42 м.
Вид битрейта : Постоянный
Битрейт : 384 Кбит/сек
Каналы : 6 каналов
Расположение каналов : Front: L C R, Side: L R, LFE
Частота : 48,0 КГц
Битовая глубина : 16 бит
Метод сжатия : С потерями
Размер потока : 117 Мбайт (8%)
Заголовок : Original
Язык : English
Default : Нет
Forced : Нет

Общее
Уникальный идентификатор : 251332042472122110970742908760248689150 (0xBD14CA6891D589279A7C6EF3B6CE21FE)
Полное имя : D:\Kinozal\ROZDACHA104\Rizzoli.and.Isles.(1.sezon.10.serii.iz.10).2010.MPEG-4.WEBDL.720p\Rizzoli.and.Isles.(1.sezon.05.serija.iz.10).2010.MPEG-4.WEBDL.720p.mkv
Формат : Matroska
Версия формата : Version 2
Размер файла : 1,38 Гбайт
Продолжительность : 42 м.
Общий поток : 4636 Кбит/сек
Дата кодирования : UTC 2011-07-15 04:09:56
Программа кодирования : mkvmerge v4.8.0 ('I Got The...') сборка от May 24 2011 03:12:58
Библиотека кодирования : libebml v1.2.0 + libmatroska v1.1.0

Видео
Идентификатор : 1
Формат : AVC
Формат/Информация : Advanced Video Codec
Профиль формата : High@L3.1
Параметр CABAC формата : Нет
Параметр ReFrames формата : 2 кадра
Идентификатор кодека : V_MPEG4/ISO/AVC
Продолжительность : 42 м.
Битрейт : 3968 Кбит/сек
Ширина : 1280 пикселей
Высота : 720 пикселей
Соотношение сторон : 16:9
Частота кадров : 23,976 кадра/сек
Цветовое пространство : YUV
Субдискретизация насыщенности : 4:2:0
Битовая глубина : 8 бит
Тип развёртки : Прогрессивная
Бит/(Пиксели*Кадры) : 0.180
Размер потока : 1,18 Гбайт (86%)
Заголовок : Money for Nothing
Язык : English
Default : Да
Forced : Нет
Основные цвета : BT.709-5, BT.1361, IEC 61966-2-4, SMPTE RP177
Характеристики трансфера : BT.709-5, BT.1361
Коэффициенты матрицы : BT.709-5, BT.1361, IEC 61966-2-4 709, SMPTE RP177

Аудио #1
Идентификатор : 2
Формат : AC-3
Формат/Информация : Audio Coding 3
Расширение режима : CM (complete main)
Параметр Endianness формата : Big
Идентификатор кодека : A_AC3
Продолжительность : 42 м.
Вид битрейта : Постоянный
Битрейт : 192 Кбит/сек
Каналы : 2 канала
Расположение каналов : Front: L R
Частота : 48,0 КГц
Битовая глубина : 16 бит
Метод сжатия : С потерями
Размер потока : 58,6 Мбайт (4%)
Заголовок : Gravi-TV
Язык : Russian
Default : Да
Forced : Нет

Аудио #2
Идентификатор : 3
Формат : AC-3
Формат/Информация : Audio Coding 3
Расширение режима : CM (complete main)
Параметр Endianness формата : Big
Идентификатор кодека : A_AC3
Продолжительность : 42 м.
Вид битрейта : Постоянный
Битрейт : 384 Кбит/сек
Каналы : 6 каналов
Расположение каналов : Front: L C R, Side: L R, LFE
Частота : 48,0 КГц
Битовая глубина : 16 бит
Метод сжатия : С потерями
Размер потока : 117 Мбайт (8%)
Заголовок : Original
Язык : English
Default : Нет
Forced : Нет

Общее
Уникальный идентификатор : 251401043360395193256402895197671182970 (0xBD22146A3879F78CA04D22E0D886D27A)
Полное имя : D:\Kinozal\ROZDACHA104\Rizzoli.and.Isles.(1.sezon.10.serii.iz.10).2010.MPEG-4.WEBDL.720p\Rizzoli.and.Isles.(1.sezon.06.serija.iz.10).2010.MPEG-4.WEBDL.720p.mkv
Формат : Matroska
Версия формата : Version 2
Размер файла : 1,33 Гбайт
Продолжительность : 41 м.
Общий поток : 4561 Кбит/сек
Дата кодирования : UTC 2011-07-15 04:15:47
Программа кодирования : mkvmerge v4.8.0 ('I Got The...') сборка от May 24 2011 03:12:58
Библиотека кодирования : libebml v1.2.0 + libmatroska v1.1.0

Видео
Идентификатор : 1
Формат : AVC
Формат/Информация : Advanced Video Codec
Профиль формата : High@L3.1
Параметр CABAC формата : Нет
Параметр ReFrames формата : 2 кадра
Идентификатор кодека : V_MPEG4/ISO/AVC
Продолжительность : 41 м.
Битрейт : 3894 Кбит/сек
Ширина : 1280 пикселей
Высота : 720 пикселей
Соотношение сторон : 16:9
Частота кадров : 23,976 кадра/сек
Цветовое пространство : YUV
Субдискретизация насыщенности : 4:2:0
Битовая глубина : 8 бит
Тип развёртки : Прогрессивная
Бит/(Пиксели*Кадры) : 0.176
Размер потока : 1,14 Гбайт (85%)
Заголовок : I Kissed a Girl
Язык : English
Default : Да
Forced : Нет
Основные цвета : BT.709-5, BT.1361, IEC 61966-2-4, SMPTE RP177
Характеристики трансфера : BT.709-5, BT.1361
Коэффициенты матрицы : BT.709-5, BT.1361, IEC 61966-2-4 709, SMPTE RP177

Аудио #1
Идентификатор : 2
Формат : AC-3
Формат/Информация : Audio Coding 3
Расширение режима : CM (complete main)
Параметр Endianness формата : Big
Идентификатор кодека : A_AC3
Продолжительность : 41 м.
Вид битрейта : Постоянный
Битрейт : 192 Кбит/сек
Каналы : 2 канала
Расположение каналов : Front: L R
Частота : 48,0 КГц
Битовая глубина : 16 бит
Метод сжатия : С потерями
Размер потока : 57,5 Мбайт (4%)
Заголовок : Gravi-TV
Язык : Russian
Default : Да
Forced : Нет

Аудио #2
Идентификатор : 3
Формат : AC-3
Формат/Информация : Audio Coding 3
Расширение режима : CM (complete main)
Параметр Endianness формата : Big
Идентификатор кодека : A_AC3
Продолжительность : 41 м.
Вид битрейта : Постоянный
Битрейт : 384 Кбит/сек
Каналы : 6 каналов
Расположение каналов : Front: L C R, Side: L R, LFE
Частота : 48,0 КГц
Битовая глубина : 16 бит
Метод сжатия : С потерями
Размер потока : 115 Мбайт (8%)
Заголовок : Original
Язык : English
Default : Нет
Forced : Нет

Общее
Уникальный идентификатор : 211055868672612857199002478531626627518 (0x9EC7E1B9D0034465B4E56ED0658771BE)
Полное имя : D:\Kinozal\ROZDACHA104\Rizzoli.and.Isles.(1.sezon.10.serii.iz.10).2010.MPEG-4.WEBDL.720p\Rizzoli.and.Isles.(1.sezon.07.serija.iz.10).2010.MPEG-4.WEBDL.720p.mkv
Формат : Matroska
Версия формата : Version 2
Размер файла : 1,45 Гбайт
Продолжительность : 42 м.
Общий поток : 4851 Кбит/сек
Дата кодирования : UTC 2011-07-15 02:38:04
Программа кодирования : mkvmerge v4.8.0 ('I Got The...') сборка от May 24 2011 03:12:58
Библиотека кодирования : libebml v1.2.0 + libmatroska v1.1.0

Видео
Идентификатор : 1
Формат : AVC
Формат/Информация : Advanced Video Codec
Профиль формата : High@L3.1
Параметр CABAC формата : Нет
Параметр ReFrames формата : 2 кадра
Идентификатор кодека : V_MPEG4/ISO/AVC
Продолжительность : 42 м.
Битрейт : 4179 Кбит/сек
Ширина : 1280 пикселей
Высота : 720 пикселей
Соотношение сторон : 16:9
Частота кадров : 23,976 кадра/сек
Цветовое пространство : YUV
Субдискретизация насыщенности : 4:2:0
Битовая глубина : 8 бит
Тип развёртки : Прогрессивная
Бит/(Пиксели*Кадры) : 0.189
Размер потока : 1,25 Гбайт (86%)
Заголовок : Born to Run
Язык : English
Default : Да
Forced : Нет
Основные цвета : BT.709-5, BT.1361, IEC 61966-2-4, SMPTE RP177
Характеристики трансфера : BT.709-5, BT.1361
Коэффициенты матрицы : BT.709-5, BT.1361, IEC 61966-2-4 709, SMPTE RP177

Аудио #1
Идентификатор : 2
Формат : AC-3
Формат/Информация : Audio Coding 3
Расширение режима : CM (complete main)
Параметр Endianness формата : Big
Идентификатор кодека : A_AC3
Продолжительность : 42 м.
Вид битрейта : Постоянный
Битрейт : 192 Кбит/сек
Каналы : 2 канала
Расположение каналов : Front: L R
Частота : 48,0 КГц
Битовая глубина : 16 бит
Метод сжатия : С потерями
Размер потока : 58,6 Мбайт (4%)
Заголовок : Gravi-TV
Язык : Russian
Default : Да
Forced : Нет

Аудио #2
Идентификатор : 3
Формат : AC-3
Формат/Информация : Audio Coding 3
Расширение режима : CM (complete main)
Параметр Endianness формата : Big
Идентификатор кодека : A_AC3
Продолжительность : 42 м.
Вид битрейта : Постоянный
Битрейт : 384 Кбит/сек
Каналы : 6 каналов
Расположение каналов : Front: L C R, Side: L R, LFE
Частота : 48,0 КГц
Битовая глубина : 16 бит
Метод сжатия : С потерями
Размер потока : 117 Мбайт (8%)
Заголовок : Original
Язык : English
Default : Нет
Forced : Нет

Общее
Уникальный идентификатор : 196729268116332374349590748405760186854 (0x9400ADC879B8A15DA9C6AD44EA0AD9E6)
Полное имя : D:\Kinozal\ROZDACHA104\Rizzoli.and.Isles.(1.sezon.10.serii.iz.10).2010.MPEG-4.WEBDL.720p\Rizzoli.and.Isles.(1.sezon.08.serija.iz.10).2010.MPEG-4.WEBDL.720p.mkv
Формат : Matroska
Версия формата : Version 2
Размер файла : 1,39 Гбайт
Продолжительность : 42 м.
Общий поток : 4660 Кбит/сек
Дата кодирования : UTC 2011-07-15 02:42:12
Программа кодирования : mkvmerge v4.8.0 ('I Got The...') сборка от May 24 2011 03:12:58
Библиотека кодирования : libebml v1.2.0 + libmatroska v1.1.0

Видео
Идентификатор : 1
Формат : AVC
Формат/Информация : Advanced Video Codec
Профиль формата : High@L3.1
Параметр CABAC формата : Нет
Параметр ReFrames формата : 2 кадра
Идентификатор кодека : V_MPEG4/ISO/AVC
Продолжительность : 42 м.
Битрейт : 3991 Кбит/сек
Ширина : 1280 пикселей
Высота : 720 пикселей
Соотношение сторон : 16:9
Частота кадров : 23,976 кадра/сек
Цветовое пространство : YUV
Субдискретизация насыщенности : 4:2:0
Битовая глубина : 8 бит
Тип развёртки : Прогрессивная
Бит/(Пиксели*Кадры) : 0.181
Размер потока : 1,19 Гбайт (86%)
Заголовок : I'm Your Boogie Man
Язык : English
Default : Да
Forced : Нет
Основные цвета : BT.709-5, BT.1361, IEC 61966-2-4, SMPTE RP177
Характеристики трансфера : BT.709-5, BT.1361
Коэффициенты матрицы : BT.709-5, BT.1361, IEC 61966-2-4 709, SMPTE RP177

Аудио #1
Идентификатор : 2
Формат : AC-3
Формат/Информация : Audio Coding 3
Расширение режима : CM (complete main)
Параметр Endianness формата : Big
Идентификатор кодека : A_AC3
Продолжительность : 42 м.
Вид битрейта : Постоянный
Битрейт : 192 Кбит/сек
Каналы : 2 канала
Расположение каналов : Front: L R
Частота : 48,0 КГц
Битовая глубина : 16 бит
Метод сжатия : С потерями
Размер потока : 58,7 Мбайт (4%)
Заголовок : Gravi-TV
Язык : Russian
Default : Да
Forced : Нет

Аудио #2
Идентификатор : 3
Формат : AC-3
Формат/Информация : Audio Coding 3
Расширение режима : CM (complete main)
Параметр Endianness формата : Big
Идентификатор кодека : A_AC3
Продолжительность : 42 м.
Вид битрейта : Постоянный
Битрейт : 384 Кбит/сек
Каналы : 6 каналов
Расположение каналов : Front: L C R, Side: L R, LFE
Частота : 48,0 КГц
Битовая глубина : 16 бит
Метод сжатия : С потерями
Размер потока : 117 Мбайт (8%)
Заголовок : Original
Язык : English
Default : Нет
Forced : Нет

Общее
Уникальный идентификатор : 245014607862131811388752019313875396743 (0xB85418D59B9E0FF095031DAF2F36A887)
Полное имя : D:\Kinozal\ROZDACHA104\Rizzoli.and.Isles.(1.sezon.10.serii.iz.10).2010.MPEG-4.WEBDL.720p\Rizzoli.and.Isles.(1.sezon.09.serija.iz.10).2010.MPEG-4.WEBDL.720p.mkv
Формат : Matroska
Версия формата : Version 2
Размер файла : 1,35 Гбайт
Продолжительность : 42 м.
Общий поток : 4523 Кбит/сек
Дата кодирования : UTC 2011-07-15 02:42:52
Программа кодирования : mkvmerge v4.8.0 ('I Got The...') сборка от May 24 2011 03:12:58
Библиотека кодирования : libebml v1.2.0 + libmatroska v1.1.0

Видео
Идентификатор : 1
Формат : AVC
Формат/Информация : Advanced Video Codec
Профиль формата : High@L3.1
Параметр CABAC формата : Нет
Параметр ReFrames формата : 2 кадра
Идентификатор кодека : V_MPEG4/ISO/AVC
Продолжительность : 42 м.
Битрейт : 3857 Кбит/сек
Ширина : 1280 пикселей
Высота : 720 пикселей
Соотношение сторон : 16:9
Частота кадров : 23,976 кадра/сек
Цветовое пространство : YUV
Субдискретизация насыщенности : 4:2:0
Битовая глубина : 8 бит
Тип развёртки : Прогрессивная
Бит/(Пиксели*Кадры) : 0.175
Размер потока : 1,15 Гбайт (85%)
Заголовок : The Beast in Me
Язык : English
Default : Да
Forced : Нет
Основные цвета : BT.709-5, BT.1361, IEC 61966-2-4, SMPTE RP177
Характеристики трансфера : BT.709-5, BT.1361
Коэффициенты матрицы : BT.709-5, BT.1361, IEC 61966-2-4 709, SMPTE RP177

Аудио #1
Идентификатор : 2
Формат : AC-3
Формат/Информация : Audio Coding 3
Расширение режима : CM (complete main)
Параметр Endianness формата : Big
Идентификатор кодека : A_AC3
Продолжительность : 42 м.
Вид битрейта : Постоянный
Битрейт : 192 Кбит/сек
Каналы : 2 канала
Расположение каналов : Front: L R
Частота : 48,0 КГц
Битовая глубина : 16 бит
Метод сжатия : С потерями
Размер потока : 58,5 Мбайт (4%)
Заголовок : Gravi-TV
Язык : Russian
Default : Да
Forced : Нет

Аудио #2
Идентификатор : 3
Формат : AC-3
Формат/Информация : Audio Coding 3
Расширение режима : CM (complete main)
Параметр Endianness формата : Big
Идентификатор кодека : A_AC3
Продолжительность : 42 м.
Вид битрейта : Постоянный
Битрейт : 384 Кбит/сек
Каналы : 6 каналов
Расположение каналов : Front: L C R, Side: L R, LFE
Частота : 48,0 КГц
Битовая глубина : 16 бит
Метод сжатия : С потерями
Размер потока : 117 Мбайт (8%)
Заголовок : Original
Язык : English
Default : Нет
Forced : Нет

Общее
Уникальный идентификатор : 179317981748278980643890325135690801256 (0x86E76316783A0B2D9AFE12F00A1FA068)
Полное имя : D:\Kinozal\ROZDACHA104\Rizzoli.and.Isles.(1.sezon.10.serii.iz.10).2010.MPEG-4.WEBDL.720p\Rizzoli.and.Isles.(1.sezon.10.serija.iz.10).2010.MPEG-4.WEBDL.720p.mkv
Формат : Matroska
Версия формата : Version 2
Размер файла : 1,40 Гбайт
Продолжительность : 42 м.
Общий поток : 4683 Кбит/сек
Дата кодирования : UTC 2011-07-15 02:43:55
Программа кодирования : mkvmerge v4.8.0 ('I Got The...') сборка от May 24 2011 03:12:58
Библиотека кодирования : libebml v1.2.0 + libmatroska v1.1.0

Видео
Идентификатор : 1
Формат : AVC
Формат/Информация : Advanced Video Codec
Профиль формата : High@L3.1
Параметр CABAC формата : Нет
Параметр ReFrames формата : 2 кадра
Идентификатор кодека : V_MPEG4/ISO/AVC
Продолжительность : 42 м.
Битрейт : 4014 Кбит/сек
Ширина : 1280 пикселей
Высота : 720 пикселей
Соотношение сторон : 16:9
Частота кадров : 23,976 кадра/сек
Цветовое пространство : YUV
Субдискретизация насыщенности : 4:2:0
Битовая глубина : 8 бит
Тип развёртки : Прогрессивная
Бит/(Пиксели*Кадры) : 0.182
Размер потока : 1,20 Гбайт (86%)
Заголовок : When the Gun Goes Bang, Bang, Bang
Язык : English
Default : Да
Forced : Нет
Основные цвета : BT.709-5, BT.1361, IEC 61966-2-4, SMPTE RP177
Характеристики трансфера : BT.709-5, BT.1361
Коэффициенты матрицы : BT.709-5, BT.1361, IEC 61966-2-4 709, SMPTE RP177

Аудио #1
Идентификатор : 2
Формат : AC-3
Формат/Информация : Audio Coding 3
Расширение режима : CM (complete main)
Параметр Endianness формата : Big
Идентификатор кодека : A_AC3
Продолжительность : 42 м.
Вид битрейта : Постоянный
Битрейт : 192 Кбит/сек
Каналы : 2 канала
Расположение каналов : Front: L R
Частота : 48,0 КГц
Битовая глубина : 16 бит
Метод сжатия : С потерями
Размер потока : 58,6 Мбайт (4%)
Заголовок : Gravi-TV
Язык : Russian
Default : Да
Forced : Нет

Аудио #2
Идентификатор : 3
Формат : AC-3
Формат/Информация : Audio Coding 3
Расширение режима : CM (complete main)
Параметр Endianness формата : Big
Идентификатор кодека : A_AC3
Продолжительность : 42 м.
Вид битрейта : Постоянный
Битрейт : 384 Кбит/сек
Каналы : 6 каналов
Расположение каналов : Front: L C R, Side: L R, LFE
Частота : 48,0 КГц
Битовая глубина : 16 бит
Метод сжатия : С потерями
Размер потока : 117 Мбайт (8%)
Заголовок : Original
Язык : English
Default : Нет
Forced : Нет



Скачать Риццоли.и.Айлс.Rizzoli.&.Isles.(сезоны.01-04).(Билл.Хабер).[2010-2013.драма.детектив.WEB-DLRip].[MVO.(SET)]+[Eng].torrent без регистрации
Золото ЗОЛОТАЯ РАЗДАЧА! СКАЧАННОЕ НЕ ЗАСЧИТЫВАЕТСЯ! Золото
Дата: Зарегистрирован   [ Тип: внутренний ] Как тут cкачать?
MAGNET ссылка
MAGNET ссылка


Скачать .torrent

106 KB

Статус: проверено DHT
Скачан: торрент - 199 раз, раздача полностью - 59 раз
Размер: 39,89 GB
Оценка:  5 (Голосов: 1)
Поблагодарили: 3
Поделиться ссылкой на эту раздачу с друзьями:
В контактеFacebookОдноклассникиTwitterLivejournalМой МирLiveinternet
 

 
Показать сообщения:    


Вы не можете начинать темы
Вы не можете отвечать на сообщения
Вы не можете редактировать свои сообщения
Вы не можете удалять свои сообщения
Вы не можете голосовать в опросах
Вы не можете прикреплять файлы к сообщениям
Вы можете скачивать файлы