Loading...
Error

Скачать Солдат в синем мундире / Soldier Blue (Ральф Нельсон) [1970, вестерн, история, BDRip-AVC] [DVO]+[VO]+[Sub] торрент без регистрации

 
Статистика раздачи
Размер:  3,28 GB   |    Скачан:  115 раз
Сидов:  1  [  0 KB/s  ]  
 
Автор Сообщение

Marsianka

[] 

Информация о фильме
Название: Солдат в синем мундире
Оригинальное название: Soldier Blue
Год выхода: 1970
Жанр: вестерн, история
Режиссер: Ральф Нельсон
В ролях: Кэндис Берген, Питер Штраусс, Дональд Плезенс, Джон Андерсон, Хорхе Риверо, Дэна Элкар, Боб Каррауэй, Мартин Уэст, Джеймс Хэмптон, Морт Миллз, Хорхе Руссек, Аурора Клавель, Ральф Нельсон, Марко Антонио Арсате, Рон Флетчер, Конрад Хул, Лэнс Хул, Эдди Литтл Скай, Барбара Тернер

О фильме:
Отряд кавалерии, сопровождавший золото, подвергся нападению индейцев и был уничтожен. Спаслись только женщина и один солдат. Вместе они добираются до своих, по пути между ними завязывается роман…

Рейтинг R - Детям до 17 лет обязательно присутствие родителей
Рип - Викс
За исходник СПАСИБО Uralmix
Сохранены оригинальные чаптеры как на Blu-Ray
Общее
Уникальный идентификатор : 218858728396634257668792086218583891183 (0xA4A6A8699368A33F987546A6FBBCDCEF)
Полное имя : H:ФильмСделать русский переводГотовые сделаные релизыSoldat.v.sinem.mundire.1970.x264.BDRip-AVC-MediaClub.mkv
Формат : Matroska
Версия формата : Version 2
Размер файла : 3,28 Гбайт
Продолжительность : 1 ч. 55 м.
Общий поток : 4079 Кбит/сек
Название фильма : Soldier Blue (1970) BDRip-AVC =MediaClub= [Викс]
Дата кодирования : UTC 2015-03-10 07:53:23
Программа кодирования : mkvmerge v5.8.0 ('No Sleep / Pillow') built on Sep 2 2012 15:37:04
Библиотека кодирования : libebml v1.2.3 + libmatroska v1.3.0

Видео
Идентификатор : 1
Формат : AVC
Формат/Информация : Advanced Video Codec
Профиль формата : High@L4.1
Параметр CABAC формата : Да
Параметр ReFrames формата : 10 кадров
Идентификатор кодека : V_MPEG4/ISO/AVC
Продолжительность : 1 ч. 55 м.
Битрейт : 3500 Кбит/сек
Ширина : 1024 пикселя
Высота : 436 пикселей
Соотношение сторон : 2,35:1
Режим частоты кадров : Постоянный
Частота кадров : 23,976 кадра/сек
Цветовое пространство : YUV
Субдискретизация насыщенности : 4:2:0
Битовая глубина : 8 бит
Тип развёртки : Прогрессивная
Бит/(Пиксели*Кадры) : 0.327
Размер потока : 2,75 Гбайт (84%)
Библиотека кодирования : x264 core 125 r2208 d9d2288
Настройки программы : cabac=1 / ref=10 / deblock=1:-3:-3 / analyse=0x3:0x133 / me=umh / subme=11 / psy=1 / psy_rd=1.00:0.25 / mixed_ref=1 / me_range=48 / chroma_me=1 / trellis=2 / 8x8dct=1 / cqm=0 / deadzone=21,11 / fast_pskip=0 / chroma_qp_offset=-4 / threads=12 / lookahead_threads=2 / sliced_threads=0 / nr=0 / decimate=1 / interlaced=0 / bluray_compat=0 / constrained_intra=0 / bframes=8 / b_pyramid=2 / b_adapt=2 / b_bias=0 / direct=3 / weightb=1 / open_gop=0 / weightp=2 / keyint=240 / keyint_min=24 / scenecut=40 / intra_refresh=0 / rc=2pass / mbtree=0 / bitrate=3500 / ratetol=1.0 / qcomp=0.60 / qpmin=0 / qpmax=69 / qpstep=4 / cplxblur=20.0 / qblur=0.5 / ip_ratio=1.40 / pb_ratio=1.30 / aq=1:1.00
Язык : English
Default : Да
Forced : Нет

Аудио #1
Идентификатор : 2
Формат : AC-3
Формат/Информация : Audio Coding 3
Расширение режима : CM (complete main)
Параметр Endianness формата : Big
Идентификатор кодека : A_AC3
Продолжительность : 1 ч. 55 м.
Вид битрейта : Постоянный
Битрейт : 192 Кбит/сек
Каналы : 2 канала
Расположение каналов : Front: L R
Частота : 48,0 КГц
Битовая глубина : 16 бит
Метод сжатия : С потерями
Размер потока : 158 Мбайт (5%)
Язык : Russian
Default : Да
Forced : Нет

Аудио #2
Идентификатор : 3
Формат : AC-3
Формат/Информация : Audio Coding 3
Расширение режима : CM (complete main)
Параметр Endianness формата : Big
Идентификатор кодека : A_AC3
Продолжительность : 1 ч. 55 м.
Вид битрейта : Постоянный
Битрейт : 192 Кбит/сек
Каналы : 2 канала
Расположение каналов : Front: L R
Частота : 48,0 КГц
Битовая глубина : 16 бит
Метод сжатия : С потерями
Размер потока : 158 Мбайт (5%)
Язык : Russian
Default : Нет
Forced : Нет

Аудио #3
Идентификатор : 4
Формат : AC-3
Формат/Информация : Audio Coding 3
Расширение режима : CM (complete main)
Параметр Endianness формата : Big
Идентификатор кодека : A_AC3
Продолжительность : 1 ч. 55 м.
Вид битрейта : Постоянный
Битрейт : 192 Кбит/сек
Каналы : 2 канала
Расположение каналов : Front: L R
Частота : 48,0 КГц
Битовая глубина : 16 бит
Метод сжатия : С потерями
Размер потока : 158 Мбайт (5%)
Язык : English
Default : Нет
Forced : Нет

Текст
Идентификатор : 5
Формат : UTF-8
Идентификатор кодека : S_TEXT/UTF8
Идентификатор кодека/Информация : UTF-8 Plain Text
Язык : Russian
Default : Нет
Forced : Нет

Меню
00:00:00.000 : en:00:00:00.000
00:04:12.961 : en:00:04:12.961
00:13:01.656 : en:00:13:01.656
00:24:35.307 : en:00:24:35.307
00:31:07.908 : en:00:31:07.908
00:37:27.454 : en:00:37:27.454
00:45:42.949 : en:00:45:42.949
00:51:40.723 : en:00:51:40.723
01:00:16.029 : en:01:00:16.029
01:10:03.533 : en:01:10:03.533
01:20:28.407 : en:01:20:28.407
01:27:53.268 : en:01:27:53.268
01:34:52.478 : en:01:34:52.478
01:41:14.568 : en:01:41:14.568
01:49:28.771 : en:01:49:28.771
01:53:35.517 : en:01:53:35.517
Страна: США
Студия: AVCO Embassy Pictures, Katzka-Loeb
Продолжительность: 01:55:13
Перевод: Профессиональный двухголосый, профессиональный одноголосый (c VHS)

Файл
Кодек: x264
Качество: BDRip-AVC
Видео: MPEG-4 AVC, 3500 Кбит/с, 1024x436, 23.976 кадр/с
Аудио #1: Русский (AC3, 2 ch, 192 Кбит/с) / Профессиональный двухголосый
Аудио #2: Русский (AC3, 2 ch, 192 Кбит/с) / Профессиональный одноголосый (c VHS)
Аудио #3: Английский (AC3, 2 ch, 192 Кбит/с)
Субтитры: Русские
Семпл Релиз от: Рип - Викс



Скачать Солдат.в.синем.мундире.Soldier.Blue.(Ральф.Нельсон).[1970.вестерн.история.BDRip-AVC].[DVO]+[VO]+[Sub].torrent без регистрации
Золото ЗОЛОТАЯ РАЗДАЧА! СКАЧАННОЕ НЕ ЗАСЧИТЫВАЕТСЯ! Золото
Дата: Зарегистрирован   [ Тип: внутренний ] Как тут cкачать?
MAGNET ссылка
MAGNET ссылка


Скачать .torrent

17 KB

Статус: проверено DHT
Скачан: торрент - 115 раз, раздача полностью - 6 раз
Размер: 3,28 GB
Оценка:  - (Голосов: 0)
Поблагодарили: 1
Поделиться ссылкой на эту раздачу с друзьями:
В контактеFacebookОдноклассникиTwitterLivejournalМой МирLiveinternet
 

 
Показать сообщения:    


Вы не можете начинать темы
Вы не можете отвечать на сообщения
Вы не можете редактировать свои сообщения
Вы не можете удалять свои сообщения
Вы не можете голосовать в опросах
Вы не можете прикреплять файлы к сообщениям
Вы можете скачивать файлы