Loading...
Error

Скачать К северу от Аляски / North to Alaska (Генри Хэтэуэй) [1960, комедия, вестерн, BDRip-AVC] [MVO]x2+[Sub]x2 торрент без регистрации

 
Статистика раздачи
Размер:  3,31 GB   |    Скачан:  114 раз
Сидов:  1  [  0 KB/s  ]  
 
Автор Сообщение

Marsianka

[] 

Информация о фильме
Название: К северу от Аляски
Оригинальное название: North to Alaska
Год выхода: 1960
Жанр: комедия, вестерн
Режиссер: Генри Хэтэуэй
В ролях: Джон Уэйн, Стюарт Грейнджер, Эрни Ковач, Фабиан, Капюсин, Мики Шонесси, Карл Свенсон, Джо Сойер, Кэтлин Фримен, Джон Кволен, Стэнли Адамс, Фред Олдрич, Элис Эллин, Джимми Амес, Гарри Арни, Марк Бэйли, Рэйфорд Барнс, Оскар Береги мл., Дэнни Борзаж, Питер Борн, Чет Бранденбург, Монте Буркхарт, Алан Карни, Клэнси, Лилиан Шовин, Ричард Колье

О фильме:
Сэм и Джордж — владельцы золотого прииска на Аляске. Когда дела на прииске налаживаются, Джордж просит приятеля съездить в Сиэтл за оборудованием и заодно привезти оттуда свою возлюбленную Дженни. Однако в Сиэтле Сэм обнаруживает, что девушка уже замужем, поэтому решает найти Джорджу новую подругу.

Рип - Викс
За исходник СПАСИБО darleg
Сохранены оригинальные чаптеры как на Blu-Ray
Общее
Уникальный идентификатор : 249220981827131708870896758729126859582 (0xBB7E37153001C906A2103340C62E533E)
Полное имя : H:ФильмСделать русский переводГотовые сделаные релизыNorth.to.Alaska.1960.x264.BDRip-AVC-MediaClub.mkv
Формат : Matroska
Версия формата : Version 2
Размер файла : 3,31 Гбайт
Продолжительность : 2 ч. 2 м.
Общий поток : 3878 Кбит/сек
Название фильма : North to Alaska (1960) BDRip-AVC =MediaClub= [Викс]
Дата кодирования : UTC 2015-03-10 08:11:49
Программа кодирования : mkvmerge v5.8.0 ('No Sleep / Pillow') built on Sep 2 2012 15:37:04
Библиотека кодирования : libebml v1.2.3 + libmatroska v1.3.0

Видео
Идентификатор : 1
Формат : AVC
Формат/Информация : Advanced Video Codec
Профиль формата : High@L4.1
Параметр CABAC формата : Да
Параметр ReFrames формата : 9 кадров
Идентификатор кодека : V_MPEG4/ISO/AVC
Продолжительность : 2 ч. 2 м.
Битрейт : 3300 Кбит/сек
Ширина : 1024 пикселя
Высота : 436 пикселей
Соотношение сторон : 2,35:1
Режим частоты кадров : Постоянный
Частота кадров : 23,976 кадра/сек
Цветовое пространство : YUV
Субдискретизация насыщенности : 4:2:0
Битовая глубина : 8 бит
Тип развёртки : Прогрессивная
Бит/(Пиксели*Кадры) : 0.308
Размер потока : 2,75 Гбайт (83%)
Библиотека кодирования : x264 core 125 r2208 d9d2288
Настройки программы : cabac=1 / ref=9 / deblock=1:-3:-3 / analyse=0x3:0x133 / me=umh / subme=11 / psy=1 / psy_rd=1.00:0.25 / mixed_ref=1 / me_range=48 / chroma_me=1 / trellis=2 / 8x8dct=1 / cqm=0 / deadzone=21,11 / fast_pskip=0 / chroma_qp_offset=-4 / threads=12 / lookahead_threads=2 / sliced_threads=0 / nr=0 / decimate=0 / interlaced=0 / bluray_compat=0 / constrained_intra=0 / bframes=8 / b_pyramid=2 / b_adapt=2 / b_bias=0 / direct=3 / weightb=1 / open_gop=0 / weightp=2 / keyint=250 / keyint_min=23 / scenecut=40 / intra_refresh=0 / rc_lookahead=40 / rc=2pass / mbtree=1 / bitrate=3300 / ratetol=1.0 / qcomp=0.60 / qpmin=0 / qpmax=69 / qpstep=4 / cplxblur=20.0 / qblur=0.5 / ip_ratio=1.40 / aq=1:1.00
Язык : English
Default : Да
Forced : Нет

Аудио #1
Идентификатор : 2
Формат : AC-3
Формат/Информация : Audio Coding 3
Расширение режима : CM (complete main)
Параметр Endianness формата : Big
Идентификатор кодека : A_AC3
Продолжительность : 2 ч. 2 м.
Вид битрейта : Постоянный
Битрейт : 192 Кбит/сек
Каналы : 2 канала
Расположение каналов : Front: L R
Частота : 48,0 КГц
Битовая глубина : 16 бит
Метод сжатия : С потерями
Размер потока : 168 Мбайт (5%)
Заголовок : 1-j kanal
Язык : Russian
Default : Да
Forced : Нет

Аудио #2
Идентификатор : 3
Формат : AC-3
Формат/Информация : Audio Coding 3
Расширение режима : CM (complete main)
Параметр Endianness формата : Big
Идентификатор кодека : A_AC3
Продолжительность : 2 ч. 2 м.
Вид битрейта : Постоянный
Битрейт : 192 Кбит/сек
Каналы : 2 канала
Расположение каналов : Front: L R
Частота : 48,0 КГц
Битовая глубина : 16 бит
Метод сжатия : С потерями
Размер потока : 168 Мбайт (5%)
Заголовок : R5
Язык : Russian
Default : Нет
Forced : Нет

Аудио #3
Идентификатор : 4
Формат : AC-3
Формат/Информация : Audio Coding 3
Расширение режима : CM (complete main)
Параметр Endianness формата : Big
Идентификатор кодека : A_AC3
Продолжительность : 2 ч. 2 м.
Вид битрейта : Постоянный
Битрейт : 192 Кбит/сек
Каналы : 2 канала
Расположение каналов : Front: L R
Частота : 48,0 КГц
Битовая глубина : 16 бит
Метод сжатия : С потерями
Размер потока : 168 Мбайт (5%)
Язык : English
Default : Нет
Forced : Нет

Текст #1
Идентификатор : 5
Формат : UTF-8
Идентификатор кодека : S_TEXT/UTF8
Идентификатор кодека/Информация : UTF-8 Plain Text
Язык : Russian
Default : Нет
Forced : Нет

Текст #2
Идентификатор : 6
Формат : UTF-8
Идентификатор кодека : S_TEXT/UTF8
Идентификатор кодека/Информация : UTF-8 Plain Text
Язык : English
Default : Нет
Forced : Нет

Меню
00:00:00.000 : :Chapter 01
00:09:02.917 : :Chapter 02
00:19:20.951 : :Chapter 03
00:29:07.912 : :Chapter 04
00:38:01.904 : :Chapter 05
00:49:08.904 : :Chapter 06
01:00:48.019 : :Chapter 07
01:10:34.980 : :Chapter 08
01:19:15.876 : :Chapter 09
01:30:08.945 : :Chapter 10
01:39:45.896 : :Chapter 11
01:49:42.909 : :Chapter 12
Страна: США
Студия: 20th Century Fox Film Corporation
Продолжительность: 02:02:02
Перевод: Профессиональный многоголосый (1-й канал / R5)

Файл
Кодек: x264
Качество: BDRip-AVC
Видео: MPEG-4 AVC, 3300 Кбит/с, 1024x436, 23.976 кадр/с
Аудио #1: Русский (AC3, 2 ch, 192 Кбит/с) / Профессиональный многоголосый (1-й канал)
Аудио #2: Русский (AC3, 2 ch, 192 Кбит/с) / Профессиональный многоголосый (R5)
Аудио #3: Английский (AC3, 2 ch, 192 Кбит/с)
Субтитры: Русские, английские
Семпл Релиз от: Рип - Викс



Скачать К.северу.от.Аляски.North.to.Alaska.(Генри.Хэтэуэй).[1960.комедия.вестерн.BDRip-AVC].[MVO]x2+[Sub]x2.torrent без регистрации
Золото ЗОЛОТАЯ РАЗДАЧА! СКАЧАННОЕ НЕ ЗАСЧИТЫВАЕТСЯ! Золото
Дата: Зарегистрирован   [ Тип: внутренний ] Как тут cкачать?
MAGNET ссылка
MAGNET ссылка


Скачать .torrent

17 KB

Статус: проверено DHT
Скачан: торрент - 114 раз, раздача полностью - 1 раз
Размер: 3,31 GB
Оценка:  - (Голосов: 0)
Поблагодарили: 1
Поделиться ссылкой на эту раздачу с друзьями:
В контактеFacebookОдноклассникиTwitterLivejournalМой МирLiveinternet
 

 
Показать сообщения:    


Вы не можете начинать темы
Вы не можете отвечать на сообщения
Вы не можете редактировать свои сообщения
Вы не можете удалять свои сообщения
Вы не можете голосовать в опросах
Вы не можете прикреплять файлы к сообщениям
Вы можете скачивать файлы