Loading...
Error

Скачать Заваруха в городе / City Heat (Ричард Бенджамин / Richard Benjamin) [1984, боевик, комедия, WEB-DLRip-AVC] торрент без регистрации

 
Статистика раздачи
Размер:  2,32 GB   |    Скачан:  122 раза

Полного источника не было: 29 минут

 
Автор Сообщение

leon030982

[] 

Заваруха в городе / City Heat

Слоган: «When a hotshot cop and a wise-guy detective get together... the heat is on!»


Год выпуска: 1984
Страна: США
Жанр: боевик, комедия
Продолжительность: 01:37:29
Перевод #1: Профессиональный (многоголосый)
Перевод #2: Авторский (одноголосный) [Алексей Михалев]
Перевод #3: Авторский (одноголосный) [Леонид Володарский]
Оригинал: английский
Субтитры: Русские, английские

Режиссер: Ричард Бенджамин

В ролях: Клинт Иствуд, Берт Рейнолдс, Джейн Александр, Мэдлин Кан, Рип Торн, Айрин Кэра, Ричард Раундтри, Тони Ло Бьянко, Уильям Сэндерсон, Николас Уорт
Описание: 1933 год, Канзас Сити. Смышлёный частный детектив Мёрфи ищет бандита, который жестоко разделался с его напарником. А шеф полиции Спир вообще бандитов не выносит, так что разговор у лейтенанта с уголовным элементом, как правило, получается короткий.
Нельзя сказать, что Спир и Мёрфи - «в большом восторге» друг от друга, но именно это, как ни странно, делает их идеальными партнёрами в «зачистке» города от кровожадных преступников!
Ведь заваруха, как раз и начинается!



Качество: WEB-DLRip-AVC
Формат: MKV
Видео кодек: AVC
Аудио кодек: AC3
Видео: MPEG-4 AVC, 2057 Кбит/с, 1024x576, 23.976 кадр/с
Аудио:
• №1: Русский (AC3, 2 ch, 192 Кбит/с) Профессиональный многоголосый
• №2: Русский (AC3, 6 ch, 384 Кбит/с) [Алексей Михалев]
• №3: Русский (AC3, 6 ch, 384 Кбит/с) [Леонид Володарский]
• №4: Английский (AC3, 6 ch, 384 Кбит/с)


Релиз --

Код:

Полное имя : City.Heat.1984.x264.WEB-DLRip-AVC.0ptimus.mkv
Формат : Matroska
Версия формата : Version 2
Размер файла : 2,32 Гбайт
Продолжительность : 1 ч. 37 м.
Общий поток : 3402 Кбит/сек
Название фильма : Заваруха в городе | City Heat [1984] -= WEB-DLRip (AVC) by 0ptimus =-
Дата кодирования : UTC 2014-11-26 15:13:50
Программа кодирования : mkvmerge v6.6.0 ('The Edge Of The In Between') built on Dec 1 2013 17:55:00
Библиотека кодирования : libebml v1.3.0 + libmatroska v1.4.1

Видео
Идентификатор : 1
Формат : AVC
Формат/Информация : Advanced Video Codec
Профиль формата : High@L4.1
Параметр CABAC формата : Да
Параметр ReFrames формата : 8 кадров
Идентификатор кодека : V_MPEG4/ISO/AVC
Продолжительность : 1 ч. 37 м.
Битрейт : 2057 Кбит/сек
Ширина : 1024 пикселя
Высота : 576 пикселей
Соотношение сторон : 16:9
Режим частоты кадров : Постоянный
Частота кадров : 23,976 кадра/сек
Цветовое пространство : YUV
Субдискретизация насыщенности : 4:2:0
Битовая глубина : 8 бит
Тип развёртки : Прогрессивная
Бит/(Пиксели*Кадры) : 0.145
Размер потока : 1,36 Гбайт (59%)
Заголовок : Rip by 0ptimus
Библиотека кодирования : x264 core 133 r2334 a3ac64b
Настройки программы : cabac=1 / ref=8 / deblock=1:-2:-1 / analyse=0x3:0x113 / me=umh / subme=11 / psy=1 / psy_rd=1.00:0.20 / mixed_ref=1 / me_range=32 / chroma_me=1 / trellis=2 / 8x8dct=1 / cqm=0 / deadzone=21,11 / fast_pskip=0 / chroma_qp_offset=-3 / threads=3 / lookahead_threads=1 / sliced_threads=0 / nr=0 / decimate=0 / interlaced=0 / bluray_compat=0 / constrained_intra=0 / bframes=11 / b_pyramid=2 / b_adapt=2 / b_bias=0 / direct=3 / weightb=1 / open_gop=0 / weightp=2 / keyint=240 / keyint_min=23 / scenecut=40 / intra_refresh=0 / rc_lookahead=40 / rc=2pass / mbtree=0 / bitrate=2057 / ratetol=1.0 / qcomp=0.60 / qpmin=0 / qpmax=69 / qpstep=4 / cplxblur=20.0 / qblur=0.5 / vbv_maxrate=50000 / vbv_bufsize=50000 / nal_hrd=none / ip_ratio=1.40 / pb_ratio=1.30 / aq=1:1.00
Язык : English
Default : Да
Forced : Да

Аудио #1
Идентификатор : 2
Формат : AC-3
Формат/Информация : Audio Coding 3
Расширение режима : CM (complete main)
Параметр Endianness формата : Big
Идентификатор кодека : A_AC3
Продолжительность : 1 ч. 37 м.
Вид битрейта : Постоянный
Битрейт : 192 Кбит/сек
Каналы : 2 канала
Расположение каналов : Front: L R
Частота : 48,0 КГц
Битовая глубина : 16 бит
Метод сжатия : С потерями
Размер потока : 134 Мбайт (6%)
Заголовок : Многоголосый AC3 2.0 @ 192 kbps
Язык : Russian
Default : Да
Forced : Да

Аудио #2
Идентификатор : 3
Формат : AC-3
Формат/Информация : Audio Coding 3
Расширение режима : CM (complete main)
Параметр Endianness формата : Big
Идентификатор кодека : A_AC3
Продолжительность : 1 ч. 37 м.
Вид битрейта : Постоянный
Битрейт : 384 Кбит/сек
Каналы : 6 каналов
Расположение каналов : Front: L C R, Side: L R, LFE
Частота : 48,0 КГц
Битовая глубина : 16 бит
Метод сжатия : С потерями
Размер потока : 268 Мбайт (11%)
Заголовок : Авторский [Алексей Михалев] AC3 5.1 @ 384 kbps
Язык : Russian
Default : Нет
Forced : Нет

Аудио #3
Идентификатор : 4
Формат : AC-3
Формат/Информация : Audio Coding 3
Расширение режима : CM (complete main)
Параметр Endianness формата : Big
Идентификатор кодека : A_AC3
Продолжительность : 1 ч. 37 м.
Вид битрейта : Постоянный
Битрейт : 384 Кбит/сек
Каналы : 6 каналов
Расположение каналов : Front: L C R, Side: L R, LFE
Частота : 48,0 КГц
Битовая глубина : 16 бит
Метод сжатия : С потерями
Размер потока : 268 Мбайт (11%)
Заголовок : Авторский [Леонид Володарский] AC3 5.1 @ 384 kbps
Язык : Russian
Default : Нет
Forced : Нет

Аудио #4
Идентификатор : 5
Формат : AC-3
Формат/Информация : Audio Coding 3
Расширение режима : CM (complete main)
Параметр Endianness формата : Big
Идентификатор кодека : A_AC3
Продолжительность : 1 ч. 37 м.
Вид битрейта : Постоянный
Битрейт : 384 Кбит/сек
Каналы : 6 каналов
Расположение каналов : Front: L C R, Side: L R, LFE
Частота : 48,0 КГц
Битовая глубина : 16 бит
Метод сжатия : С потерями
Размер потока : 268 Мбайт (11%)
Заголовок : AC3 5.1 @ 384 kbps
Язык : English
Default : Нет
Forced : Нет

Текст #1
Идентификатор : 6
Формат : UTF-8
Идентификатор кодека : S_TEXT/UTF8
Идентификатор кодека/Информация : UTF-8 Plain Text
Заголовок : Форсированные
Язык : Russian
Default : Да
Forced : Да

Текст #2
Идентификатор : 7
Формат : UTF-8
Идентификатор кодека : S_TEXT/UTF8
Идентификатор кодека/Информация : UTF-8 Plain Text
Язык : Russian
Default : Нет
Forced : Нет

Текст #3
Идентификатор : 8
Формат : UTF-8
Идентификатор кодека : S_TEXT/UTF8
Идентификатор кодека/Информация : UTF-8 Plain Text
Язык : English
Default : Нет
Forced : Нет

Меню
00:00:00.000 : en:1. Beginning
00:03:35.000 : en:2. Lou's Diner
00:08:12.000 : en:3. Murphy's Situation
00:12:42.000 : en:4. Bouncing Bonus
00:16:45.000 : en:5. Double-Dealer Dehl
00:21:13.000 : en:6. Fight Night
00:24:04.000 : en:7. Coll's Threat
00:28:31.000 : en:8. Surprise Guests
00:33:48.000 : en:9. Financial Rearrangements
00:38:33.000 : en:10. Next Truck Coming Along
00:42:21.000 : en:11. Just Want the Bullet
00:45:58.000 : en:12. Lady in Distress
00:49:44.000 : en:13. Good at Taking off
00:54:44.000 : en:14. Meeting Ginny
00:56:45.000 : en:15. Still Freezing
00:58:18.000 : en:16. Ginny's Accident
01:02:39.000 : en:17. The Goods
01:05:41.000 : en:18. Boulevard of Bullets
01:10:12.000 : en:19. Speer Calls the Shots
01:14:18.000 : en:20. Giving It to Pitt
01:17:40.000 : en:21. Big Guns Come Out
01:19:14.000 : en:22. Heating Things up
01:24:10.000 : en:23. Lady and Her Rescuers
01:28:31.000 : en:24. Busting up the Game
01:30:26.000 : en:25. Sooner
01:32:57.000 : en:26. Abhorrent Violence



Скачать Заваруха.в.городе.City.Heat.(Ричард.Бенджамин.Richard.Benjamin).[1984.боевик.комедия.WEB-DLRip-AVC].torrent без регистрации
Золото ЗОЛОТАЯ РАЗДАЧА! СКАЧАННОЕ НЕ ЗАСЧИТЫВАЕТСЯ! Золото
Дата: Зарегистрирован   [ Тип: внутренний ] Как тут cкачать?
MAGNET ссылка
MAGNET ссылка


Скачать .torrent

24 KB

Статус: проверено DHT
Скачан: торрент - 122 раз, раздача полностью - 2 раз
Размер: 2,32 GB
Оценка:  - (Голосов: 0)
Поблагодарили: 2
Поделиться ссылкой на эту раздачу с друзьями:
В контактеFacebookОдноклассникиTwitterLivejournalМой МирLiveinternet
 

 
Показать сообщения:    


Вы не можете начинать темы
Вы не можете отвечать на сообщения
Вы не можете редактировать свои сообщения
Вы не можете удалять свои сообщения
Вы не можете голосовать в опросах
Вы не можете прикреплять файлы к сообщениям
Вы можете скачивать файлы