Loading...
Error

Скачать Трущобы Беверли Хиллз / Slums of Beverly Hills (Тамара Дженкинс / Тамара Дженкинс) [1998, Комедия, DVDRip] [DVO] (Лазер Видео) торрент без регистрации

 
Статистика раздачи
Размер:  721 MB   |    Скачан:  113 раз
Сидов:  1  [  0 KB/s  ]  
 
Автор Сообщение

leon030982

[] 

Трущобы Беверли Хиллз / Slums of Beverly Hills


Год выпуска: 1998
Страна: США
Жанр: Комедия
Продолжительность: 01:31:00
Перевод: Профессиональный (двухголосый, закадровый) [Лазер Видео]
Cубтитры: нет

Режиссер: Тамара Дженкинс / Тамара Дженкинс

В ролях: Наташа Лионн, Алан Аркин, Брина Уайсс, Мариса Томей, Шарлотта Стюарт, Эли Мариентал, Дэвид Крамхолц, Кевин Корригэн, Брендан Барнс, Харрис Ласкэвей

Описание: По дороге во взрослую жизнь Вивьен мучает несовместимость двух факторов в ее жизни. С одной стороны, страшная подавленность, связанная с постоянными переездами ее семьи, и полное отчаяние, когда шанс поселиться в школьном районе Беверли-Хиллз улетучился, как дым, с другой — ее сексуальный расцвет.
Ко всему этому добавляется появление жиизнеародстной кузины, явившейся к Вивьен, чтобы помочь ей выпустить свою сексуальную энергию. Результат доказал, что для того, чтобы хорошо повеселиться, необязательно быть богатым.

Сэмпл

Релиз

Качество: DVDRip
Формат: AVI
Видео: XviD build 41, 656x384 (1.71:1), 23.976 fps, 905 kbps avg, 0.15 bit/pixel
Аудио: AC3 Dolby Digital, 48000Hz, 2/0 (L,R) ch (stereo), 192.00 kbps avg
Трущобы Беверли Хиллз - Slums of Beverly Hills [by ale_x2008].avi
Format : AVI
Format/Info : Audio Video Interleave
File size : 721 MiB
Duration : 1h 30mn
Overall bit rate : 1 107 Kbps
Movie name : Трущобы Беверли Хиллз - Slums of Beverly Hills [by ale_x2008]
Director : by ale_x2008
Copyright : Edich2
Video
ID : 0
Format : MPEG-4 Visual
Format profile : Advanced Simple@L5
Format settings, BVOP : 2
Format settings, QPel : No
Format settings, GMC : No warppoints
Format settings, Matrix : Default (H.263)
Codec ID : XVID
Codec ID/Hint : XviD
Duration : 1h 30mn
Bit rate : 906 Kbps
Width : 656 pixels
Height : 384 pixels
Display aspect ratio : 1.708
Frame rate : 23.976 fps
Color space : YUV
Chroma subsampling : 4:2:0
Bit depth : 8 bits
Scan type : Progressive
Compression mode : Lossy
Bits/(Pixel*Frame) : 0.150
Stream size : 589 MiB (82%)
Writing library : XviD 1.1.0 (UTC 2005-11-22)
Audio
ID : 1
Format : AC-3
Format/Info : Audio Coding 3
Mode extension : CM (complete main)
Format settings, Endianness : Big
Codec ID : 2000
Duration : 1h 30mn
Bit rate mode : Constant
Bit rate : 192 Kbps
Channel(s) : 2 channels
Channel positions : Front: L R
Sampling rate : 48.0 KHz
Bit depth : 16 bits
Compression mode : Lossy
Stream size : 125 MiB (17%)
Alignment : Split accross interleaves
Interleave, duration : 42 ms (1.00 video frame)
Interleave, preload duration : 500 ms



Скачать Трущобы.Беверли.Хиллз.Slums.of.Beverly.Hills.(Тамара.Дженкинс.Тамара.Дженкинс).[1998.Комедия.DVDRip].[DVO].(Лазер.Видео).torrent без регистрации
Золото ЗОЛОТАЯ РАЗДАЧА! СКАЧАННОЕ НЕ ЗАСЧИТЫВАЕТСЯ! Золото
Дата: Зарегистрирован   [ Тип: внутренний ] Как тут cкачать?
MAGNET ссылка
MAGNET ссылка


Скачать .torrent

15 KB

Статус: проверено DHT
Скачан: торрент - 113 раз, раздача полностью - 6 раз
Размер: 721 MB
Оценка:  5 (Голосов: 1)
Поблагодарили: 1
Поделиться ссылкой на эту раздачу с друзьями:
В контактеFacebookОдноклассникиTwitterLivejournalМой МирLiveinternet
 

 
Показать сообщения:    


Вы не можете начинать темы
Вы не можете отвечать на сообщения
Вы не можете редактировать свои сообщения
Вы не можете удалять свои сообщения
Вы не можете голосовать в опросах
Вы не можете прикреплять файлы к сообщениям
Вы можете скачивать файлы