Loading...
Error

Скачать Вамп / Vamp (Ричард Уэнк) [1986, ужасы, комедия, BDRip-AVC] [AVO]x2 торрент без регистрации

 
Статистика раздачи
Размер:  2,67 GB   |    Скачан:  125 раз
Сидов:  1  [  0 KB/s  ]  
 
Автор Сообщение

Marsianka

[] 

Информация о фильме
Название: Вамп
Оригинальное название: Vamp
Год выхода: 1986
Жанр: ужасы, комедия
Режиссер: Ричард Уэнк
В ролях: Крис Мейкпис, Сэнди Бэрон, Роберт Раслер, Диди Пфайфер, Гедде Ватанабэ, Грейс Джонс, Билли Драго, Брэд Логан, Лиза Лион, Джим Бойл, Ларри Спинак, Эрик Уэлш, Стюарт Роджерс

О фильме:
Двое друзей Кит и Эй Джей вызвались привезти стриптизершу на студенческую вечеринку. В ночном клубе «После заката» у них разбегаются глаза от изобилия подходящих кандидатур. Они не заметили ничего необычного, пока владелица заведения — соблазнительная Катрина не обнажила… свои остренькие зубки.

Сатурн, 1987 год
Номинации (1):
Лучшая актриса второго плана (Грейс Джонс)
Рейтинг R - Детям до 17 лет обязательно присутствие родителей
Рип - Викс
За исходник СПАСИБО HD Club
Сохранены оригинальные чаптеры как на Blu-Ray
Общее
Уникальный идентификатор : 177737261833750115328206808592295338880 (0x85B6F3942FD3498CA2D6296CF8432380)
Полное имя : H:ФильмСделать русский переводГотовые сделаные релизыVamp.1986.x264.BDRip-AVC-MediaClub.mkv
Формат : Matroska
Версия формата : Version 2
Размер файла : 2,67 Гбайт
Продолжительность : 1 ч. 33 м.
Общий поток : 4071 Кбит/сек
Название фильма : Vamp (1986) BDRip-AVC =MediaClub= [Викс]
Дата кодирования : UTC 2015-03-10 08:32:43
Программа кодирования : mkvmerge v5.8.0 ('No Sleep / Pillow') built on Sep 2 2012 15:37:04
Библиотека кодирования : libebml v1.2.3 + libmatroska v1.3.0

Видео
Идентификатор : 1
Формат : AVC
Формат/Информация : Advanced Video Codec
Профиль формата : High@L4.1
Параметр CABAC формата : Да
Параметр ReFrames формата : 8 кадров
Идентификатор кодека : V_MPEG4/ISO/AVC
Продолжительность : 1 ч. 33 м.
Битрейт : 3500 Кбит/сек
Ширина : 1024 пикселя
Высота : 554 пикселя
Соотношение сторон : 1,85:1
Режим частоты кадров : Постоянный
Частота кадров : 23,976 кадра/сек
Цветовое пространство : YUV
Субдискретизация насыщенности : 4:2:0
Битовая глубина : 8 бит
Тип развёртки : Прогрессивная
Бит/(Пиксели*Кадры) : 0.257
Размер потока : 2,24 Гбайт (84%)
Библиотека кодирования : x264 core 130 r2273 b3065e6
Настройки программы : cabac=1 / ref=8 / deblock=1:-2:-2 / analyse=0x3:0x133 / me=umh / subme=11 / psy=1 / psy_rd=1.00:0.20 / mixed_ref=1 / me_range=48 / chroma_me=1 / trellis=2 / 8x8dct=1 / cqm=0 / deadzone=21,11 / fast_pskip=1 / chroma_qp_offset=-3 / threads=12 / lookahead_threads=1 / sliced_threads=0 / nr=0 / decimate=1 / interlaced=0 / bluray_compat=0 / constrained_intra=0 / bframes=8 / b_pyramid=2 / b_adapt=0 / b_bias=0 / direct=3 / weightb=1 / open_gop=0 / weightp=0 / keyint=250 / keyint_min=23 / scenecut=40 / intra_refresh=0 / rc_lookahead=40 / rc=2pass / mbtree=1 / bitrate=3500 / ratetol=1.0 / qcomp=0.60 / qpmin=0 / qpmax=69 / qpstep=4 / cplxblur=20.0 / qblur=0.5 / ip_ratio=1.40 / aq=1:0.80
Язык : English
Default : Да
Forced : Нет

Аудио #1
Идентификатор : 2
Формат : AC-3
Формат/Информация : Audio Coding 3
Расширение режима : CM (complete main)
Параметр Endianness формата : Big
Идентификатор кодека : A_AC3
Продолжительность : 1 ч. 33 м.
Вид битрейта : Постоянный
Битрейт : 192 Кбит/сек
Каналы : 1 канал
Расположение каналов : Front: C
Частота : 48,0 КГц
Битовая глубина : 16 бит
Метод сжатия : С потерями
Размер потока : 129 Мбайт (5%)
Заголовок : AP (Vizgunov)
Язык : Russian
Default : Да
Forced : Нет

Аудио #2
Идентификатор : 3
Формат : AC-3
Формат/Информация : Audio Coding 3
Расширение режима : CM (complete main)
Параметр Endianness формата : Big
Идентификатор кодека : A_AC3
Продолжительность : 1 ч. 33 м.
Вид битрейта : Постоянный
Битрейт : 192 Кбит/сек
Каналы : 2 канала
Расположение каналов : Front: L R
Частота : 48,0 КГц
Битовая глубина : 16 бит
Метод сжатия : С потерями
Размер потока : 129 Мбайт (5%)
Заголовок : Odnogolosuj
Язык : Russian
Default : Нет
Forced : Нет

Аудио #3
Идентификатор : 4
Формат : AC-3
Формат/Информация : Audio Coding 3
Расширение режима : CM (complete main)
Параметр Endianness формата : Big
Идентификатор кодека : A_AC3
Продолжительность : 1 ч. 33 м.
Вид битрейта : Постоянный
Битрейт : 192 Кбит/сек
Каналы : 1 канал
Расположение каналов : Front: C
Частота : 48,0 КГц
Битовая глубина : 16 бит
Метод сжатия : С потерями
Размер потока : 129 Мбайт (5%)
Язык : English
Default : Нет
Forced : Нет

Меню
00:00:00.000 : en:00:00:00.000
00:02:43.622 : en:00:02:43.622
00:09:17.682 : en:00:09:17.682
00:17:45.940 : en:00:17:45.940
00:26:09.485 : en:00:26:09.485
00:33:06.818 : en:00:33:06.818
00:38:16.669 : en:00:38:16.669
00:45:53.167 : en:00:45:53.167
00:51:43.600 : en:00:51:43.600
00:57:47.172 : en:00:57:47.172
01:05:15.912 : en:01:05:15.912
01:11:47.678 : en:01:11:47.678
01:16:42.807 : en:01:16:42.807
01:22:04.253 : en:01:22:04.253
01:27:14.396 : en:01:27:14.396
01:30:00.812 : en:01:30:00.812
Страна: США
Студия: Balcor Film Investors, Planet Productions
Продолжительность: 01:33:59
Перевод: Авторский одноголосый (Сергей Визгунов / Сергей Зереницын)

Файл
Кодек: x264
Качество: BDRip-AVC
Видео: MPEG-4 AVC, 3500 Кбит/с, 1024x554, 23.976 кадр/с
Аудио #1: Русский (AC3, 1 ch, 192 Кбит/с) / Авторский одноголосый (Сергей Визгунов)
Аудио #2: Русский (AC3, 2 ch, 192 Кбит/с) / Авторский одноголосый (Сергей Зереницын)
Аудио #3: Английский (AC3, 1 ch, 192 Кбит/с)
Семпл Релиз от: Рип - Викс



Скачать Вамп.Vamp.(Ричард.Уэнк).[1986.ужасы.комедия.BDRip-AVC].[AVO]x2.torrent без регистрации
Золото ЗОЛОТАЯ РАЗДАЧА! СКАЧАННОЕ НЕ ЗАСЧИТЫВАЕТСЯ! Золото
Дата: Зарегистрирован   [ Тип: внутренний ] Как тут cкачать?
MAGNET ссылка
MAGNET ссылка


Скачать .torrent

14 KB

Статус: проверено DHT
Скачан: торрент - 125 раз, раздача полностью - 1 раз
Размер: 2,67 GB
Оценка:  - (Голосов: 0)
Поблагодарили: 1
Поделиться ссылкой на эту раздачу с друзьями:
В контактеFacebookОдноклассникиTwitterLivejournalМой МирLiveinternet
 

 
Показать сообщения:    


Вы не можете начинать темы
Вы не можете отвечать на сообщения
Вы не можете редактировать свои сообщения
Вы не можете удалять свои сообщения
Вы не можете голосовать в опросах
Вы не можете прикреплять файлы к сообщениям
Вы можете скачивать файлы