Loading...
Error

Скачать Черный пояс / Kuro-obi / Black Belt (Shunichi Nagasaki) [2007, драма, DVDRip-AVC] [MVO]x2+[Оригинал] торрент без регистрации

 
Статистика раздачи
Размер:  1,43 GB   |    Скачан:  103 раза
Сидов:  1  [  0 KB/s  ]  
 
Автор Сообщение

Marsianka

[] 

Информация о фильме
Название: Черный пояс
Оригинальное название:Kuro-obi
Год выхода: 2007
Жанр: драма
Режиссер:Shunichi Nagasaki
В ролях: Akihito Yagi, Tatsuya Naka, Yuji Suzuki, Arashi Fukasawa, Hakuryu, Takayasu Komiya, Yosuke Natsuki, Shinya Owada, Kenji Anan, Atsuko Nakamura, Tatsuya Mori, Atsushi Hida

О фильме:
Шел 1932 год. Умирая, старый мастер каратэ, оставляет своих немногочисленных учеников. Один из них Тайкан, отбросив наставления учителя - использовать каратэ для защиты и самосовершенствования, становится инструктором императорской военной полиции. Он помогает командиру прибирать к рукам другие додзе, выпивает, путается с женщинами. Другой ученик Гирю, старается идти путем указанным учителем, но жизнь заставляет его поступиться принципами, встав на защиту семьи, которая спасла ему жизнь. Этим своим поступком он навлекает гнев игорной мафии и командира военной полиции. А значит Гирю и Тайкану суждено встретится в поединке...



Страна:Япония
Продолжительность: 01:31:36

Файл
Формат: m4v
Кодек: H.264
Качество: DVDRip-AVC
Видео: 720x554 (анаморф 1024x554), 1750kbps, 25fps
AAC, 2ch, 160kbps VBR, 48kHz
Аудио 1: Русский - профессиональный многоголосый закадровый
Аудио 2: Украинский - профессиональный многоголосый закадровый
Аудио 3: Японский - оригинал
Метатэги: Прописаны
Раздача будет полезна пользователям iOS и OS X платформ из-за родных кодеков и контейнера.
При просмотре на Windows рекомендую пользоваться iTunes или VLC media player.
General
Format : MPEG-4
Codec ID : M4V
File size : 1.43 GiB
Duration : 1h 31mn
Overall bit rate mode : Variable
Overall bit rate : 2 241 Kbps
Movie name : Kuro-obi
Performer : Shunichi Nagasaki
Genre : Drama
Deion : Set in 1932, amid the rise of militarism after the establishment of the Manchukuo colony in Northeast China, the story centers on a trio of karateka. Studying under their aging master in a small dojo in the woods of central Kyushu, Choei, Taikan and Giryu face a company of kempeitai military police come to requisition their dojo for use as a military base.
Recorded date : 2007-01-01
Encoded date : UTC 2013-08-21 15:43:54
Tagged date : UTC 2013-08-21 15:47:16
Cover : Yes
Rating : None
LongDeion : Set in 1932, amid the rise of militarism after the establishment of the Manchukuo colony in Northeast China, the story centers on a trio of karateka. Studying under their aging master in a small dojo in the woods of central Kyushu, Choei, Taikan and Giryu face a company of kempeitai military police come to requisition their dojo for use as a military base.

Video
ID : 1
Format : AVC
Format/Info : Advanced Video Codec
Format profile : High@L4.1
Format settings, CABAC : Yes
Format settings, ReFrames : 9 frames
Codec ID : avc1
Codec ID/Info : Advanced Video Coding
Duration : 1h 31mn
Bit rate mode : Variable
Bit rate : 1 749 Kbps
Width : 720 pixels
Height : 554 pixels
Display aspect ratio : 1.85:1
Frame rate mode : Variable
Frame rate : 25.000 fps
Minimum frame rate : 9.346 fps
Maximum frame rate : 25.000 fps
Color space : YUV
Chroma subsampling : 4:2:0
Bit depth : 8 bits
Scan type : Progressive
Bits/(Pixel*Frame) : 0.175
Stream size : 1.12 GiB (78%)
Writing library : x264 core 130 r2273 b3065e6
Encoding settings : cabac=1 / ref=9 / deblock=1:0:0 / analyse=0x3:0x113 / me=umh / subme=9 / psy=1 / psy_rd=1.00:0.00 / mixed_ref=1 / me_range=32 / chroma_me=1 / trellis=1 / 8x8dct=1 / cqm=0 / deadzone=21,11 / fast_pskip=1 / chroma_qp_offset=-2 / threads=6 / lookahead_threads=1 / sliced_threads=0 / nr=0 / decimate=1 / interlaced=0 / bluray_compat=0 / constrained_intra=0 / bframes=9 / b_pyramid=2 / b_adapt=1 / b_bias=0 / direct=1 / weightb=1 / open_gop=0 / weightp=2 / keyint=250 / keyint_min=25 / scenecut=40 / intra_refresh=0 / rc_lookahead=40 / rc=crf / mbtree=1 / crf=17.0 / qcomp=0.60 / qpmin=0 / qpmax=69 / qpstep=4 / vbv_maxrate=62500 / vbv_bufsize=78125 / crf_max=0.0 / nal_hrd=none / ip_ratio=1.40 / aq=1:1.00
Language : Japanese
Encoded date : UTC 2013-08-21 15:43:54
Tagged date : UTC 2013-08-21 15:45:22
Color primaries : BT.601 PAL
Transfer characteristics : BT.709
Matrix coefficients : BT.601

Audio #1
ID : 2
Format : AAC
Format/Info : Advanced Audio Codec
Format profile : LC
Codec ID : 40
Duration : 1h 31mn
Bit rate mode : Variable
Bit rate : 161 Kbps
Maximum bit rate : 268 Kbps
Channel count : 2 channels
Channel positions : Front: L R
Sampling rate : 48.0 KHz
Compression mode : Lossy
Delay relative to video : 85ms
Stream size : 105 MiB (7%)
Language : Russian
Encoded date : UTC 2013-08-21 15:43:54
Tagged date : UTC 2013-08-21 15:45:22

Audio #2
ID : 3
Format : AAC
Format/Info : Advanced Audio Codec
Format profile : LC
Codec ID : 40
Duration : 1h 31mn
Bit rate mode : Variable
Bit rate : 160 Kbps
Maximum bit rate : 255 Kbps
Channel count : 2 channels
Channel positions : Front: L R
Sampling rate : 48.0 KHz
Compression mode : Lossy
Delay relative to video : 85ms
Stream size : 105 MiB (7%)
Language : Ukrainian
Encoded date : UTC 2013-08-21 15:43:54
Tagged date : UTC 2013-08-21 15:45:22

Audio #3
ID : 4
Format : AAC
Format/Info : Advanced Audio Codec
Format profile : LC
Codec ID : 40
Duration : 1h 31mn
Bit rate mode : Variable
Bit rate : 161 Kbps
Maximum bit rate : 286 Kbps
Channel count : 2 channels
Channel positions : Front: L R
Sampling rate : 48.0 KHz
Compression mode : Lossy
Delay relative to video : 85ms
Stream size : 105 MiB (7%)
Language : Japanese
Encoded date : UTC 2013-08-21 15:43:54
Tagged date : UTC 2013-08-21 15:45:22



Скачать Черный.пояс.Kuro-obi.Black.Belt.(Shunichi.Nagasaki).[2007.драма.DVDRip-AVC].[MVO]x2+[Оригинал].torrent без регистрации
Золото ЗОЛОТАЯ РАЗДАЧА! СКАЧАННОЕ НЕ ЗАСЧИТЫВАЕТСЯ! Золото
Дата: Зарегистрирован   [ Тип: внутренний ] Как тут cкачать?
MAGNET ссылка
MAGNET ссылка


Скачать .torrent

15 KB

Статус: проверено DHT
Скачан: торрент - 103 раз, раздача полностью - 1 раз
Размер: 1,43 GB
Оценка:  - (Голосов: 0)
Поблагодарили: 1
Поделиться ссылкой на эту раздачу с друзьями:
В контактеFacebookОдноклассникиTwitterLivejournalМой МирLiveinternet
 

 
Показать сообщения:    


Вы не можете начинать темы
Вы не можете отвечать на сообщения
Вы не можете редактировать свои сообщения
Вы не можете удалять свои сообщения
Вы не можете голосовать в опросах
Вы не можете прикреплять файлы к сообщениям
Вы можете скачивать файлы