Loading...
Error

Скачать Мужчина по вызову / Deuce Bigalow: Male Gigolo (Майк Митчелл) [1999, комедия, WEB-DLRip-AVC] [MVO]x4+[AVO]+[Sub]x2 торрент без регистрации

 
Статистика раздачи
Размер:  2,21 GB   |    Скачан:  145 раз
Сидов:  1  [  0 KB/s  ]  
 
Автор Сообщение

Marsianka

[] 

Мужчина по вызову
| Deuce Bigalow: Male Gigolo |

Информация о фильме
Название: Мужчина по вызову
Оригинальное название: Deuce Bigalow: Male Gigolo
Год выхода: 1999
Жанр: комедия
Режиссер: Майк Митчелл
В ролях: Роб Шнайдер, Уильям Форсайт, Эдди Гриффин, Ариджа Барейкис, Одед Фер, Гэйл О`Грэйди, Ричард Рил, Жаклин Обрадорс, Биг Бой, Эми Полер, Дина Плэтиэс

О фильме:
Дьюс Бигало, вечно нищий чистильщик водоемов, которому к тому же с девушками не везет, является по вызову (пруд приусадебный почистить) к одному богатому и красивому, который в числе прочего рассказывает, как он на жизнь зарабатывает: мужской проституцией. И уезжает в командировку. А Дьюса оставляет по хозяйству — подмести там, за рыбкой больной поухаживать. И вот живет Бигало в роскошном домище, а телефон звонит не переставая — одинокие женщины любви алчут. И, ясное дело, Дьюс начинает карьеру мальчика по вызову. Ну, мальчика — это сильно сказано, скорее низенького дяденьки по вызову.



Страна: США
Студия: Happy Madison Productions, Out of the Blue... Entertainment, Touchstone Pictures
Продолжительность: 01:28:37
Перевод: Профессиональный многоголосый, авторский

Файл
Кодек: h.264
Качество: WEB-DLRip-AVC
Видео: 2058 Кбит/с, 1024x554, 23.976 кадр/с

• №1: Русский (AC3, 2 ch, 160 Кбит/с) Профессиональный многоголосый [iTunes, 1 канал]
• №2: Русский (AC3, 2 ch, 192 Кбит/с) Профессиональный многоголосый [R5]
• №3: Русский (AC3, 2 ch, 192 Кбит/с) Профессиональный многоголосый [Видеосервис]
• №4: Русский (AC3, 6 ch, 384 Кбит/с) Авторский одноголосый [Санаев]
• №5: Украинский (AC3, 2 ch, 192 Кбит/с) Профессиональный многоголосый [ТРК Украина]
• №6: Английский (AC3, 6 ch, 384 Кбит/с)

Субтитры: Русские, английские

-------------------------------------------------------------------------------------------------
x264 [info]: frame I:1187 Avg QP:16.40 size: 67401
x264 [info]: frame P:32869 Avg QP:19.01 size: 22475
x264 [info]: frame B:93429 Avg QP:20.98 size: 5871
x264 [info]: consecutive B-frames: 1.8% 4.1% 4.5% 76.4% 5.3% 4.9% 1.0% 0.5% 0.2% 0.2% 0.3% 0.3% 0.4%
-------------------------------------------------------------------------------------------------

Полное имя : Deuce.Bigalow.Male.Gigolo.1999.x264.WEB-DLRip-AVC.0ptimus.mkv
Формат : Matroska
Версия формата : Version 2
Размер файла : 2,21 Гбайт
Продолжительность : 1 ч. 28 м.
Общий поток : 3563 Кбит/сек
Название фильма : Мужчина по вызову | Deuce Bigalow: Male Gigolo [1999] -= WEB-DLRip (AVC) by 0ptimus =-
Дата кодирования : UTC 2015-03-10 09:04:29
Программа кодирования : mkvmerge v6.6.0 ('The Edge Of The In Between') built on Dec 1 2013 17:55:00
Библиотека кодирования : libebml v1.3.0 + libmatroska v1.4.1

Видео
Идентификатор : 1
Формат : AVC
Формат/Информация : Advanced Video Codec
Профиль формата : High@L4.1
Параметр CABAC формата : Да
Параметр ReFrames формата : 9 кадров
Идентификатор кодека : V_MPEG4/ISO/AVC
Продолжительность : 1 ч. 28 м.
Битрейт : 2058 Кбит/сек
Ширина : 1024 пикселя
Высота : 554 пикселя
Соотношение сторон : 1,85:1
Режим частоты кадров : Постоянный
Частота кадров : 23,976 кадра/сек
Цветовое пространство : YUV
Субдискретизация насыщенности : 4:2:0
Битовая глубина : 8 бит
Тип развёртки : Прогрессивная
Бит/(Пиксели*Кадры) : 0.151
Размер потока : 1,23 Гбайт (56%)
Заголовок : Rip by 0ptimus
Библиотека кодирования : x264 core 133 r2334 a3ac64b
Настройки программы : cabac=1 / ref=9 / deblock=1:-2:-1 / analyse=0x3:0x113 / me=umh / subme=10 / psy=1 / psy_rd=1.00:0.20 / mixed_ref=1 / me_range=32 / chroma_me=1 / trellis=2 / 8x8dct=1 / cqm=0 / deadzone=21,11 / fast_pskip=0 / chroma_qp_offset=-3 / threads=3 / lookahead_threads=1 / sliced_threads=0 / nr=0 / decimate=0 / interlaced=0 / bluray_compat=0 / constrained_intra=0 / bframes=12 / b_pyramid=2 / b_adapt=2 / b_bias=0 / direct=3 / weightb=1 / open_gop=0 / weightp=2 / keyint=240 / keyint_min=23 / scenecut=40 / intra_refresh=0 / rc_lookahead=40 / rc=2pass / mbtree=0 / bitrate=2058 / ratetol=1.0 / qcomp=0.60 / qpmin=0 / qpmax=69 / qpstep=4 / cplxblur=20.0 / qblur=0.5 / vbv_maxrate=50000 / vbv_bufsize=50000 / nal_hrd=none / ip_ratio=1.40 / pb_ratio=1.30 / aq=1:1.00
Язык : English
Default : Да
Forced : Да

Аудио #1
Идентификатор : 2
Формат : AC-3
Формат/Информация : Audio Coding 3
Расширение режима : CM (complete main)
Параметр Endianness формата : Big
Идентификатор кодека : A_AC3
Продолжительность : 1 ч. 28 м.
Вид битрейта : Постоянный
Битрейт : 160 Кбит/сек
Каналы : 2 канала
Расположение каналов : Front: L R
Частота : 48,0 КГц
Битовая глубина : 16 бит
Метод сжатия : С потерями
Размер потока : 101 Мбайт (4%)
Заголовок : Многоголосый [Первый канал, iTunes] AC3 2.0 @ 160 Kbps
Язык : Russian
Default : Да
Forced : Да

Аудио #2
Идентификатор : 3
Формат : AC-3
Формат/Информация : Audio Coding 3
Расширение режима : CM (complete main)
Параметр Endianness формата : Big
Идентификатор кодека : A_AC3
Продолжительность : 1 ч. 28 м.
Вид битрейта : Постоянный
Битрейт : 192 Кбит/сек
Каналы : 2 канала
Расположение каналов : Front: L R
Частота : 48,0 КГц
Битовая глубина : 16 бит
Метод сжатия : С потерями
Размер потока : 122 Мбайт (5%)
Заголовок : Многоголосый [R5] AC3 2.0 @ 192 Kbps
Язык : Russian
Default : Нет
Forced : Нет

Аудио #3
Идентификатор : 4
Формат : AC-3
Формат/Информация : Audio Coding 3
Расширение режима : CM (complete main)
Параметр Endianness формата : Big
Идентификатор кодека : A_AC3
Продолжительность : 1 ч. 28 м.
Вид битрейта : Постоянный
Битрейт : 192 Кбит/сек
Каналы : 2 канала
Расположение каналов : Front: L R
Частота : 48,0 КГц
Битовая глубина : 16 бит
Метод сжатия : С потерями
Размер потока : 122 Мбайт (5%)
Заголовок : Многоголосый [Видеосервис] AC3 2.0 @ 192 Kbps
Язык : Russian
Default : Нет
Forced : Нет

Аудио #4
Идентификатор : 5
Формат : AC-3
Формат/Информация : Audio Coding 3
Расширение режима : CM (complete main)
Параметр Endianness формата : Big
Идентификатор кодека : A_AC3
Продолжительность : 1 ч. 28 м.
Вид битрейта : Постоянный
Битрейт : 384 Кбит/сек
Каналы : 6 каналов
Расположение каналов : Front: L C R, Side: L R, LFE
Частота : 48,0 КГц
Битовая глубина : 16 бит
Метод сжатия : С потерями
Размер потока : 243 Мбайт (11%)
Заголовок : Авторский [Павел Санаев] AC3 5.1 @ 384 Kbps
Язык : Russian
Default : Нет
Forced : Нет

Аудио #5
Идентификатор : 6
Формат : AC-3
Формат/Информация : Audio Coding 3
Расширение режима : CM (complete main)
Параметр Endianness формата : Big
Идентификатор кодека : A_AC3
Продолжительность : 1 ч. 28 м.
Вид битрейта : Постоянный
Битрейт : 192 Кбит/сек
Каналы : 2 канала
Расположение каналов : Front: L R
Частота : 48,0 КГц
Битовая глубина : 16 бит
Метод сжатия : С потерями
Размер потока : 122 Мбайт (5%)
Заголовок : Многоголосый [ТРК -= Украина =-] AC3 2.0 @ 192 Kbps
Язык : Ukrainian
Default : Нет
Forced : Нет

Аудио #6
Идентификатор : 7
Формат : AC-3
Формат/Информация : Audio Coding 3
Расширение режима : CM (complete main)
Параметр Endianness формата : Big
Идентификатор кодека : A_AC3
Продолжительность : 1 ч. 28 м.
Вид битрейта : Постоянный
Битрейт : 384 Кбит/сек
Каналы : 6 каналов
Расположение каналов : Front: L C R, Side: L R, LFE
Частота : 48,0 КГц
Битовая глубина : 16 бит
Метод сжатия : С потерями
Размер потока : 243 Мбайт (11%)
Заголовок : AC3 5.1 @ 384 Kbps
Язык : English
Default : Нет
Forced : Нет

Текст #1
Идентификатор : 8
Формат : UTF-8
Идентификатор кодека : S_TEXT/UTF8
Идентификатор кодека/Информация : UTF-8 Plain Text
Язык : Russian
Default : Нет
Forced : Нет

Текст #2
Идентификатор : 9
Формат : UTF-8
Идентификатор кодека : S_TEXT/UTF8
Идентификатор кодека/Информация : UTF-8 Plain Text
Язык : English
Default : Нет
Forced : Нет

Меню
00:00:00.000 : en:Opening Credits/Skin Diving
00:01:33.000 : en:Allison and Her Snails
00:02:48.000 : en:A Real-Life Gigalo
00:10:20.000 : en:Rules of the House
00:12:12.000 : en:Some Trouble with the Remote Control
00:13:34.000 : en:A Little Fire, a Lot of Water
00:17:32.000 : en:Wolfie and the Wiener Schnitzel
00:19:59.000 : en:On the Make
00:22:38.000 : en:A Little Misunderstanding
00:25:25.000 : en:T.J. Hicks: Male Madam
00:29:27.000 : en:Coming on Hot and Heavy
00:32:43.000 : en:A Father's Advice
00:34:44.000 : en:A Date with Tina
00:36:36.000 : en:A Police Investigation
00:37:45.000 : en:A Date with Ruth
00:41:03.000 : en:A Date with Kate
00:44:25.000 : en:The Investigation Continues
00:46:38.000 : en:A Date with Carol
00:50:26.000 : en:Bob Bigalow's Birthday
00:53:34.000 : en:Deuce Discovers Kate's Little Secret
01:00:30.000 : en:Kate Discovers Deuce's Little Secret
01:03:02.000 : en:One Last Trick
01:06:47.000 : en:What Women Really Want
01:10:21.000 : en:Deuce on Trial
01:13:18.000 : en:A Poem for Kate
01:15:48.000 : en:With a Little Help From His Friends
01:18:08.000 : en:Antoine Arrives Home
01:21:47.000 : en:Happily-Ever Afters/End Credits
Релиз от:



Скачать Мужчина.по.вызову.Deuce.Bigalow.Male.Gigolo.(Майк.Митчелл).[1999.комедия.WEB-DLRip-AVC].[MVO]x4+[AVO]+[Sub]x2.torrent без регистрации
Золото ЗОЛОТАЯ РАЗДАЧА! СКАЧАННОЕ НЕ ЗАСЧИТЫВАЕТСЯ! Золото
Дата: Зарегистрирован   [ Тип: внутренний ] Как тут cкачать?
MAGNET ссылка
MAGNET ссылка


Скачать .torrent

23 KB

Статус: проверено DHT
Скачан: торрент - 145 раз, раздача полностью - 37 раз
Размер: 2,21 GB
Оценка:  - (Голосов: 0)
Поблагодарили: 1
Поделиться ссылкой на эту раздачу с друзьями:
В контактеFacebookОдноклассникиTwitterLivejournalМой МирLiveinternet
 

 
Показать сообщения:    


Вы не можете начинать темы
Вы не можете отвечать на сообщения
Вы не можете редактировать свои сообщения
Вы не можете удалять свои сообщения
Вы не можете голосовать в опросах
Вы не можете прикреплять файлы к сообщениям
Вы можете скачивать файлы