Loading...
Error

Скачать Взгляд в прошлое / Hindsight (сезон 01) (Майкл Трим и др.) [2015, драма, комедия, фэнтези, WEBRip] [DVO (HamsterStudio)]+[Eng] торрент без регистрации

 
Статистика раздачи
Размер:  5,39 GB   |    Скачан:  129 раз
Сидов:  1  [  0 KB/s  ]  
 
Автор Сообщение

МихаНЕзатор

[] 

Информация о фильме
Название: Взгляд в прошлое
Оригинальное название: Hindsight
Год выхода: 2015
Жанр: драма, комедия, фэнтези
Режиссёр: Майкл Трим, Брэдли Уолш, Джонатан Фрейкс

В ролях: Лаура Рэмси, Сара Голдберг, Крэйг Хорнер, Джон Патрик Амедори, Ник Клиффорд, Джесси Ходжес, Дрю Сидора, Dominick Vicchiullo, Брайан Кервин, Стив Тэлли

О фильме: Как изменилась бы ваша жизнь, если бы была возможность изменить прошлое? Накануне своей второй свадьбы Бекка часто задаётся этим вопросом и очень скучает по своей подруге Лолли, с которой не виделась уже десять лет. Неожиданно Бекка получает второй шанс - лифт привозит её в 1995 год, в то самое утро, когда она должна выйти замуж в первый раз. Готовы ли вы отправиться в девяностые вместе с ней и посмотреть, изменится ли что-нибудь в её жизни к лучшему?



Производство: США, POP Films, Timberman-Beverly Productions
Продолжительность: 3 х ~ 00:42:00
Перевод: Любительский двухголосый [HamsterStudio]
Оригинальная аудио-дорожка: Нет
Субтитры: Нет

Файл
Качество: WEB-DLRip
Формат: AVI
Видео: XviD, ~ 1900 Кбит/с, 720x400 (16:9), 23.976 кадр/с
Звук: Русский, MP3, 48000 Гц, 128 Кбит/с, 2 канала (Стерео)

Автор рипа - ivandubskoj

АНОНСЫ ПОПУЛЯРНЫХ РАЗДАЧ


Торрент обновлён, добавлена 10-я серия!

Раздача ведётся путём добавления новых серий, при каждом добавлении создаётся новый торрент. Чтобы начать докачку новой серии, пользователям необходимо сделать следующее:

- Остановить скачивание.
- Удалить старый торрент у себя из клиента (старые серии удалять не надо).
- Скачать новый торрент и запустить его у себя в клиенте вместо старого, при этом указать клиенту путь в старую папку куда и должно происходить скачивание новых серий.

Ваш клиент при этом должен произвести хеширование (проверку) старой папки (если не производит сам - помогите ему сделать это), и будет докачивать только те серии которых у вас ещё нет. Старые серии при этом не удаляются, а продолжают раздаваться!
Если вы уже удалили старые серии, то предотвратить повторную закачку старых серий можно, отжав галочку в соответствующих местах при запуске нового торрента. По возможности, желательно не удалять старые серии как можно дольше, чтобы релизер не столько продолжал раздавать старые серии, а смог сконцентрироваться на новых.

General
Complete name : Hindsight.s01e01.WEB-DLRip.avi
Format : AVI
Format/Info : Audio Video Interleave
File size : 623 MiB
Duration : 41mn 46s
Overall bit rate : 2 084 Kbps
Writing application : VirtualDubMod 1.5.10.3 (build 2550/release)
Writing library : VirtualDubMod build 2550/release

Video
ID : 0
Format : MPEG-4 Visual
Format profile : Advanced Simple@L5
Format settings, BVOP : 1
Format settings, QPel : No
Format settings, GMC : No warppoints
Format settings, Matrix : Custom
Codec ID : XVID
Codec ID/Hint : XviD
Duration : 41mn 46s
Bit rate : 1 947 Kbps
Width : 720 pixels
Height : 400 pixels
Display aspect ratio : 16:9
Frame rate : 23.976 fps
Color space : YUV
Chroma subsampling : 4:2:0
Bit depth : 8 bits
Scan type : Progressive
Compression mode : Lossy
Bits/(Pixel*Frame) : 0.282
Stream size : 582 MiB (93%)
Writing library : XviD 73

Audio
ID : 1
Format : MPEG Audio
Format version : Version 1
Format profile : Layer 3
Codec ID : 55
Codec ID/Hint : MP3
Duration : 41mn 46s
Bit rate mode : Constant
Bit rate : 128 Kbps
Channel(s) : 2 channels
Sampling rate : 48.0 KHz
Compression mode : Lossy
Stream size : 38.2 MiB (6%)
Alignment : Aligned on interleaves
Interleave, duration : 42 ms (1.00 video frame)
Interleave, preload duration : 504 ms
Writing library : LAME3.99r
Encoding settings : -m s -V 4 -q 0 -lowpass 17 -b 128



Скачать Взгляд.в.прошлое.Hindsight.(сезон.01).(Майкл.Трим.и.др.).[2015.драма.комедия.фэнтези.WEBRip].[DVO.(HamsterStudio)]+[Eng].torrent без регистрации
Золото ЗОЛОТАЯ РАЗДАЧА! СКАЧАННОЕ НЕ ЗАСЧИТЫВАЕТСЯ! Золото
Дата: Зарегистрирован   [ Тип: внутренний ] Как тут cкачать?
MAGNET ссылка
MAGNET ссылка


Скачать .torrent

28 KB

Статус: проверено DHT
Скачан: торрент - 129 раз, раздача полностью - 4 раз
Размер: 5,39 GB
Оценка:  - (Голосов: 0)
Поблагодарили: 0
Поделиться ссылкой на эту раздачу с друзьями:
В контактеFacebookОдноклассникиTwitterLivejournalМой МирLiveinternet
 

 
Показать сообщения:    


Вы не можете начинать темы
Вы не можете отвечать на сообщения
Вы не можете редактировать свои сообщения
Вы не можете удалять свои сообщения
Вы не можете голосовать в опросах
Вы не можете прикреплять файлы к сообщениям
Вы можете скачивать файлы