Loading...
Error

Скачать Сверхспособности / Powers (сезон 01) (Дэвид Петрарка и др.) [2015, фантастика, драма, криминал, WEB-DLRip] [MVO (IDEAFILM)] торрент без регистрации

 
Статистика раздачи
Размер:  5,75 GB   |    Скачан:  143 раза
Сидов:  1  [  0 KB/s  ]  
 
Автор Сообщение

МихаНЕзатор

[] 

Сверхспособности / Powers


Год выпуска: 2015
Страна: США
Жанр: фантастика, драма, криминал
Продолжительность: ~53 мин.
Перевод: Профессиональный (многоголосый закадровый) IDEAFILM
Режиссёр: Дэвид Петрарка, Микаэл Саломон, Билл Иглз

В ролях: Шарлто Копли, Эдди Иззард, Мишель Форбс, Сьюзэн Хэйард, Ноа Тейлор, Логан Браунинг, Джастис Лик, Эндрю Сенсениг, Адам Годли

Описание: Сюжет сериала разворачивается в мире, где супергерои живут среди обычных людей. Сотрудники убойного отдела Кристиан Уокер и Дина Пилгрим занимаются защитой простых людей от преступников со сверхспособностями и расследуют дела, в которых замешаны эти супергерои.



Качество: WEBRip
Формат: AVI
Видео: MPEG4 Video (DivX), 640x360, 16:9, 29.97fps, 1450 kbps
Аудио: AC3, 48 kHz, 2.0, 192 kbps

АНОНСЫ ПОПУЛЯРНЫХ РАЗДАЧ


Торрент обновлён, добавлена 10-я серия!
Format : AVI
Format/Info : Audio Video Interleave
File size : 704 MiB
Duration : 53mn 1s
Overall bit rate : 1 855 Kbps
Writing application : VirtualDubMod 1.5.10.3 | www.virtualdub-fr.org || (build 2550/release)
Writing library : VirtualDubMod build 2550/release
Video
ID : 0
Format : MPEG-4 Visual
Format profile : Advanced Simple@L5
Format settings, BVOP : Yes
Format settings, QPel : No
Format settings, GMC : No warppoints
Format settings, Matrix : Default (H.263)
Codec ID : DX50
Codec ID/Hint : DivX 5
Duration : 53mn 1s
Bit rate : 1 651 Kbps
Width : 640 pixels
Height : 360 pixels
Display aspect ratio : 16:9
Frame rate : 29.970 fps
Color space : YUV
Chroma subsampling : 4:2:0
Bit depth : 8 bits
Scan type : Progressive
Compression mode : Lossy
Bits/(Pixel*Frame) : 0.239
Stream size : 626 MiB (89%)
Writing library : XviD 73
Audio
ID : 1
Format : AC-3
Format/Info : Audio Coding 3
Mode extension : CM (complete main)
Format settings, Endianness : Big
Codec ID : 2000
Duration : 53mn 1s
Bit rate mode : Constant
Bit rate : 192 Kbps
Channel count : 2 channels
Channel positions : Front: L R
Sampling rate : 48.0 KHz
Bit depth : 16 bits
Compression mode : Lossy
Stream size : 72.8 MiB (10%)
Alignment : Split accross interleaves
Interleave, duration : 33 ms (1.00 video frame)
Interleave, preload duration : 500 ms
Когда раздача ведётся путём добавления новых серий, при каждом добавлении создётся новый торрент. Чтобы начать докачку новой серии, пользователям необходимо сделать следующее:
(1) остановить скачивание,
(2) удалить старый торрент у себя из клиента (старые серии удалять не надо),
(3) скачать новый торрент и запустить его у себя в клиенте вместо старого, при этом указать клиенту путь в старую папку, куда и должно происходить скачивание новых серий.
Ваш клиент при этом должен произвести хеширование (проверку) старой папки (если не производит сам - помогите ему сделать это), и будет докачивать только те серии, которых у вас ещё нет. Старые серии при этом не удаляются, а продолжают раздаваться!
Eсли вы уже удалили старые серии, то предотвратить повторную закачку старых серий можно, отжав галочку в соответсвующих местах при запуске нового торрента. По возможности, желательно не удалять старые серии как можно дольше, чтобы релизёр не столько продолжал раздавать старые серии, а смог сконцентрироваться на новых.



Скачать Сверхспособности.Powers.(сезон.01).(Дэвид.Петрарка.и.др.).[2015.фантастика.драма.криминал.WEB-DLRip].[MVO.(IDEAFILM)].torrent без регистрации
Золото ЗОЛОТАЯ РАЗДАЧА! СКАЧАННОЕ НЕ ЗАСЧИТЫВАЕТСЯ! Золото
Дата: Зарегистрирован   [ Тип: внутренний ] Как тут cкачать?
MAGNET ссылка
MAGNET ссылка


Скачать .torrent

59 KB

Статус: проверено DHT
Скачан: торрент - 143 раз, раздача полностью - 23 раз
Размер: 5,75 GB
Оценка:  5 (Голосов: 1)
Поблагодарили: 2
Поделиться ссылкой на эту раздачу с друзьями:
В контактеFacebookОдноклассникиTwitterLivejournalМой МирLiveinternet
 

 
Показать сообщения:    


Вы не можете начинать темы
Вы не можете отвечать на сообщения
Вы не можете редактировать свои сообщения
Вы не можете удалять свои сообщения
Вы не можете голосовать в опросах
Вы не можете прикреплять файлы к сообщениям
Вы можете скачивать файлы