Loading...
Error

Скачать Ниндзя из Беверли Хиллз / Beverly Hills Ninja (Деннис Дуган) [1997 г., боевик, комедия, HDTVRip-AVC] 2x[MVO (РТР, Видеосервис)] + [AVO (Юрий Живов)] торрент без регистрации

 
Статистика раздачи
Размер:  2,18 GB   |    Скачан:  151 раз
Сидов:  1  [  0 KB/s  ]  
 
Автор Сообщение

durik

[] 

Ниндзя из Беверли Хиллз / Beverly Hills Ninja

Информация о фильме
Название: Ниндзя из Беверли Хиллз
Оригинальное название: Beverly Hills Ninja
Год выхода: 1997
Жанр: боевик, комедия
Режиссер: Деннис Дуган
В ролях: Крис Фарли, Николлетт Шеридан, Натаниель Паркер, Сун-Тек Ох, Крис Рок, Робин Шу, Кит Кук Хирабаяси, Франсуа Чау, Дэйл Исимото, Да Минг Чен, Берт Булосб Кертис Бланк, Том Бэйли, Джейсон Дж. Тобин, Ричард Кляйн, Анна Матиас, Натан Юнг, Джон Фарли, Джерри Дель Сол, Синтия Эллисон, Франческа Каппуччи, Хидео Кимура, Джеймс Лэйн

О фильме:
Ниндзя — таинственный, пугающий и очень хитрый воин тьмы, который ничего не боится и не поддается контролю. Таким хотел видеть своего приемного сына наставник ниндзя, случайно подобрав младенца в лесу. И хотя из него и вырос толстый болван, он все равно должен стать воином и выполнить миссию ниндзя — вызволить из беды голливудскую красотку.

Но здесь, в Беверли Хиллз, ему приходится столкнуться с настоящими убийцами, которые знают тайны кунг-фу получше его, и сразиться с ними, как бы это смешно ни выглядело при его умении, а главное, весе. А что их этого вышло — Вы узнаете, посмотрев до конца фильм Ниндзя из Беверли Хиллз — приключения толстого неумехи, вообразившего себя Великим Белым Ниндзя из древней легенды.



Страна: США
Студия: Beverly Hills Ninja Productions, Motion Picture Corporation of America
Продолжительность: 01:28:39
Перевод:
Профессиональный (многоголосый закадровый) [РТР]
Профессиональный (многоголосый закадровый) [Видеосервис]
Авторский (одноголосый закадровый) [Юрий Живов]

Файл
Кодек: AVC
Качество: HDTVRip-AVC
Видео: 1024х576, 2746 kbps, 23,976 fps, 0,194 Bits/(Pixel*Frame)
Звук:
1. AC3, 48 kHz, 2 ch, 192 kbps - MVO (РТР)
2. AC3, 48 kHz, 2 ch, 192 kbps - MVO (Видеосервис)
3. AC3, 48 kHz, 2 ch, 192 kbps - AVO (Живов)
4. AC3, 48 kHz, 2 ch, 192 kbps - Original (ENG)
Субтитры: Английские, русские
General
Unique ID : 174442688402093894452827563691531064638 (0x833C70915020F6CCA7920AA5C308553E)
Complete name : I:Beverly.Hills.Ninja.1997.HDTVRip-AVC_by_Bathory.mkv
Format : Matroska
Format version : Version 4 / Version 2
File size : 2.18 GiB
Duration : 1h 28mn
Overall bit rate : 3 516 Kbps
Encoded date : UTC 2015-03-15 16:49:03
Writing application : mkvmerge v7.7.0 ('Six Voices') 64bit built on Feb 28 2015 23:39:33
Writing library : libebml v1.3.1 + libmatroska v1.4.2
_STATISTICS_WRITING_APP : mkvmerge v7.7.0 ('Six Voices') 64bit built on Feb 28 2015 23:39:33
_STATISTICS_WRITING_DATE_UTC : 2015-03-15 16:49:03
_STATISTICS_TAGS : BPS DURATION NUMBER_OF_FRAMES NUMBER_OF_BYTES
DURATION : 01:23:35.110000000
NUMBER_OF_FRAMES : 850
NUMBER_OF_BYTES : 49723

Video
ID : 1
Format : AVC
Format/Info : Advanced Video Codec
Format profile : High@L4.1
Format settings, CABAC : Yes
Format settings, ReFrames : 10 frames
Codec ID : V_MPEG4/ISO/AVC
Duration : 1h 28mn
Bit rate : 2 746 Kbps
Width : 1 024 pixels
Height : 576 pixels
Display aspect ratio : 16:9
Frame rate mode : Constant
Frame rate : 23.976 fps
Color space : YUV
Chroma subsampling : 4:2:0
Bit depth : 8 bits
Scan type : Progressive
Bits/(Pixel*Frame) : 0.194
Stream size : 1.66 GiB (76%)
Writing library : x264 core 146 r2538 121396c
Encoding settings : cabac=1 / ref=10 / deblock=1:-2:-2 / analyse=0x3:0x133 / me=umh / subme=11 / psy=1 / psy_rd=1.15:0.15 / mixed_ref=1 / me_range=48 / chroma_me=1 / trellis=2 / 8x8dct=1 / cqm=0 / deadzone=21,11 / fast_pskip=0 / chroma_qp_offset=-3 / threads=12 / lookahead_threads=3 / sliced_threads=0 / nr=0 / decimate=1 / interlaced=0 / bluray_compat=0 / constrained_intra=0 / bframes=16 / b_pyramid=2 / b_adapt=2 / b_bias=0 / direct=3 / weightb=1 / open_gop=0 / weightp=2 / keyint=240 / keyint_min=23 / scenecut=40 / intra_refresh=0 / rc_lookahead=60 / rc=2pass / mbtree=1 / bitrate=2746 / ratetol=1.0 / qcomp=0.60 / qpmin=0 / qpmax=69 / qpstep=4 / cplxblur=20.0 / qblur=0.5 / vbv_maxrate=62500 / vbv_bufsize=78125 / nal_hrd=none / filler=0 / ip_ratio=1.40 / aq=1:1.00
Default : Yes
Forced : No

Audio #1
ID : 2
Format : AC-3
Format/Info : Audio Coding 3
Mode extension : CM (complete main)
Format settings, Endianness : Big
Codec ID : A_AC3
Duration : 1h 28mn
Bit rate mode : Constant
Bit rate : 192 Kbps
Channel(s) : 2 channels
Channel positions : Front: L R
Sampling rate : 48.0 KHz
Bit depth : 16 bits
Compression mode : Lossy
Stream size : 122 MiB (5%)
Language : Russian
Default : Yes
Forced : No

Audio #2
ID : 3
Format : AC-3
Format/Info : Audio Coding 3
Mode extension : CM (complete main)
Format settings, Endianness : Big
Codec ID : A_AC3
Duration : 1h 28mn
Bit rate mode : Constant
Bit rate : 192 Kbps
Channel(s) : 2 channels
Channel positions : Front: L R
Sampling rate : 48.0 KHz
Bit depth : 16 bits
Compression mode : Lossy
Stream size : 122 MiB (5%)
Language : Russian
Default : No
Forced : No

Audio #3
ID : 4
Format : AC-3
Format/Info : Audio Coding 3
Mode extension : CM (complete main)
Format settings, Endianness : Big
Codec ID : A_AC3
Duration : 1h 28mn
Bit rate mode : Constant
Bit rate : 192 Kbps
Channel(s) : 2 channels
Channel positions : Front: L R
Sampling rate : 48.0 KHz
Bit depth : 16 bits
Compression mode : Lossy
Stream size : 122 MiB (5%)
Language : Russian
Default : No
Forced : No

Audio #4
ID : 5
Format : AC-3
Format/Info : Audio Coding 3
Mode extension : CM (complete main)
Format settings, Endianness : Big
Codec ID : A_AC3
Duration : 1h 28mn
Bit rate mode : Constant
Bit rate : 192 Kbps
Channel(s) : 2 channels
Channel positions : Front: L R
Sampling rate : 48.0 KHz
Bit depth : 16 bits
Compression mode : Lossy
Stream size : 122 MiB (5%)
Language : English
Default : No
Forced : No

Text #1
ID : 6
Format : UTF-8
Codec ID : S_TEXT/UTF8
Codec ID/Info : UTF-8 Plain Text
Title : английские
Language : English
Default : Yes
Forced : No

Text #2
ID : 7
Format : UTF-8
Codec ID : S_TEXT/UTF8
Codec ID/Info : UTF-8 Plain Text
Title : Русские
Language : Russian
Default : No
Forced : No
Релиз от:



Скачать Ниндзя.из.Беверли.Хиллз.Beverly.Hills.Ninja.(Деннис.Дуган).[1997.г.боевик.комедия.HDTVRip-AVC].2x[MVO.(РТР.Видеосервис)].+.[AVO.(Юрий.Живов)].torrent без регистрации
Золото ЗОЛОТАЯ РАЗДАЧА! СКАЧАННОЕ НЕ ЗАСЧИТЫВАЕТСЯ! Золото
Дата: Зарегистрирован   [ Тип: внутренний ] Как тут cкачать?
MAGNET ссылка
MAGNET ссылка


Скачать .torrent

12 KB

Статус: проверено DHT
Скачан: торрент - 151 раз, раздача полностью - 5 раз
Размер: 2,18 GB
Оценка:  - (Голосов: 0)
Поблагодарили: 2
Поделиться ссылкой на эту раздачу с друзьями:
В контактеFacebookОдноклассникиTwitterLivejournalМой МирLiveinternet
 

 
Показать сообщения:    


Вы не можете начинать темы
Вы не можете отвечать на сообщения
Вы не можете редактировать свои сообщения
Вы не можете удалять свои сообщения
Вы не можете голосовать в опросах
Вы не можете прикреплять файлы к сообщениям
Вы можете скачивать файлы