Loading...
Error

Скачать Константин / Constantine (сезон 01) (Нил Маршалл) [2014, ужасы, фэнтези, боевик, WEB-DLRip] [MVO (AlexFilm)] торрент без регистрации

 
Статистика раздачи
Размер:  7,49 GB   |    Скачан:  136 раз
Сидов:  1  [  0 KB/s  ]  
 
Автор Сообщение

МихаНЕзатор

[] 

Информация о фильме
Название: Константин
Оригинальное название: Constantine
Год выхода: 2014
Жанр: ужасы, фэнтези, боевик
Режиссер: Нил Маршалл

В ролях: Мэтт Райан, Люси Гриффитс, Хэролд Перрино, Чарльз Халфорд, Майлз Андерсон, Джереми Дэвис, Джулия Леман, Марк Эшворт, Хиллари Брант

О фильме: Бывалый охотник на демонов и оккультист Джон Константин специализируется на задании жару аду. Вооруженный таинственными знаниями темных искусств и своим острым умом, он ведет неравную борьбу…ну или по крайней мере вел. Так как его душа уже все равно проклята и попадет в ад, он решает оставить жизнь борца за добро, но когда демоны нацеливаются на Лив, дочь одного из самых давних друзей Константина, он неохотно возвращается, и он сделает все возможное, чтобы спасти ее.



Страна: США
Студия: DC Comics, Warner Bros. Television
Продолжительность: 13 x ~ 00:43:00
Перевод: Профессиональный (многоголосый, закадровый) [AlexFilm]

Файл
Формат: AVI
Качество: WEB-DLRip
Видео: XviD, 720x400, ~1800 kbps, 23.976 fps
Аудио: AC3, 48.0 KHz, 6 ch, 192 Kbps
Субтитры: Нет

АНОНСЫ ПОПУЛЯРНЫХ РАЗДАЧ
Сезон 1
01. Пилот / Pilot
02. Тьма по ту сторону / The Darkness Beneath
03. Пластинка дьявола / The Devil's Vinyl
04. Пир друзей / A Feast of Friends
05. Танец вуду / Danse Vaudou
06. Ярость Калибана / Rage of Caliban
07. Благословенны проклятые / Blessed Are the Damned
08. Покровитель отчаявшихся, Часть 1 / The Saint of Last Resort, Part 1
09. Покровитель отчаявшихся, Часть 2 / The Saint of Last Resort, Part 2
10. Услуга за услугу / Quid Pro Quo
11. Целый мир / A Whole World Out There
12. Ангелы и служители бога / Angels and Ministers of Grace
13. Жду, стоя на углу / Waiting for the Man
Complete name : E:KinoKonstantin.XviD.WEB-DLRip.AF.GeneralfilmKonstantin.S01.2014.XviD.WEB-DLRip.AF.GeneralfilmKonstantin.s01e03.2014.XviD.WEB-DLRip.AF.Generalfilm.avi
Format : AVI
Format/Info : Audio Video Interleave
File size : 616 MiB
Duration : 42mn 57s
Overall bit rate : 2 004 Kbps
Writing application : VirtualDubMod 1.5.10.3 | www.virtualdub-fr.org || (build 2550/release)
Writing library : VirtualDubMod build 2550/release

Video
ID : 0
Format : MPEG-4 Visual
Format profile : Advanced Simple@L5
Format settings, BVOP : 2
Format settings, QPel : No
Format settings, GMC : No warppoints
Format settings, Matrix : Default (H.263)
Codec ID : XVID
Codec ID/Hint : XviD
Duration : 42mn 57s
Bit rate : 1 802 Kbps
Width : 720 pixels
Height : 400 pixels
Display aspect ratio : 16:9
Frame rate : 23.976 fps
Color space : YUV
Chroma subsampling : 4:2:0
Bit depth : 8 bits
Scan type : Progressive
Compression mode : Lossy
Bits/(Pixel*Frame) : 0.261
Stream size : 554 MiB (90%)
Writing library : XviD 1.2.1 (UTC 2008-12-04)

Audio
ID : 1
Format : AC-3
Format/Info : Audio Coding 3
Mode extension : CM (complete main)
Format settings, Endianness : Big
Codec ID : 2000
Duration : 42mn 57s
Bit rate mode : Constant
Bit rate : 192 Kbps
Channel count : 6 channels
Channel positions : Front: L C R, Side: L R, LFE
Sampling rate : 48.0 KHz
Bit depth : 16 bits
Compression mode : Lossy
Stream size : 59.0 MiB (10%)
Alignment : Split accross interleaves
Interleave, duration : 42 ms (1.00 video frame)
Interleave, preload duration : 500 ms
Релиз от:



Скачать Константин.Constantine.(сезон.01).(Нил.Маршалл).[2014.ужасы.фэнтези.боевик.WEB-DLRip].[MVO.(AlexFilm)].torrent без регистрации
Золото ЗОЛОТАЯ РАЗДАЧА! СКАЧАННОЕ НЕ ЗАСЧИТЫВАЕТСЯ! Золото
Дата: Зарегистрирован   [ Тип: внутренний ] Как тут cкачать?
MAGNET ссылка
MAGNET ссылка


Скачать .torrent

21 KB

Статус: проверено DHT
Скачан: торрент - 136 раз, раздача полностью - 71 раз
Размер: 7,49 GB
Оценка:  - (Голосов: 0)
Поблагодарили: 1
Поделиться ссылкой на эту раздачу с друзьями:
В контактеFacebookОдноклассникиTwitterLivejournalМой МирLiveinternet
 

 
Показать сообщения:    


Вы не можете начинать темы
Вы не можете отвечать на сообщения
Вы не можете редактировать свои сообщения
Вы не можете удалять свои сообщения
Вы не можете голосовать в опросах
Вы не можете прикреплять файлы к сообщениям
Вы можете скачивать файлы