Loading...
Error

Скачать Макс и Иеремия / Max & Jeremie (Клер Девер) [1992, триллер, драма, криминал, DVDRip-AVC] [MVO] торрент без регистрации

 
Статистика раздачи
Размер:  1,5 GB   |    Скачан:  143 раза
Сидов:  1  [  0 KB/s  ]  
 
Автор Сообщение

Marsianka

[] 

Инфомация о фильме
Название: Макс и Иеремия
Оригинальное название: Max & Jeremie
Год выхода: 1992
Жанр: триллер, драма, криминал
Режиссер: Клер Девер
В ролях: Филипп Нуаре, Кристофер Ламберт, Жан-Пьер Марьель, Кристоф Одан, Федор Шаляпин мл., Тьерри Хименес, Жан-Пьерр Микель, Хосе Квальо, Патрик Рокка, Кристин Дежу, Жан-Марк Морель, Мишель Ларок, Фолькер Марек, Карин Вьяр, Патрик Ориньяк, Нану Гарсия, Мартин Ле Сауле, Ришар Дье, Чарльз Асса, Кристоф Маратье.


О фильме

В основе сюжета фильма лежит роман Тери Уайта «Плач Иеремии». Мафия поручает молодому наемному убийце Джереми ликвидировать старого опытного наемного убийцу Макса, который знает, по их мнению, слишком много. Но вместо того, чтобы побыстрее выполнить задание, Джереми все больше привязывается к Максу, а тот, всю жизнь проживший один, начинает относиться к своему молодому приятелю почти как к сыну.



Страна: Франция, Италия
Студия: Canal+ [fr], Gruppo Bema, Les Films Alain Sarde, TF1 Films Production
Продолжительность: 01:53:00
Перевод: Профессиональный (многоголосый закадровый)

Файл
Формат: MKV
Качество: DVDRip-AVC
Видео: MPEG4 AVC 1024 x 576, 25.000 fps, 1700 - 1894 Кбит/с
Звук: AC-3, 2 ch, 192 Кбит/с
Субтитры: Нет

General
Unique ID : 195314498657741361606191536617874320586 (0x92F034436C46004798E9F01E2138ECCA)
Complete name : D:DownloadsMax.Et.Jeremie.1992.x264.DVDRip.(AVC).by.Тorrent-Хzona.mkv
Format : Matroska
Format version : Version 2
File size : 1.50 GiB
Duration : 1h 53mn
Overall bit rate : 1 894 Kbps
Encoded date : UTC 2013-07-12 06:19:11
Writing application : mkvmerge v6.1.0 ('Old Devil') built on Mar 4 2013 09:10:42
Writing library : libebml v1.3.0 + libmatroska v1.4.0

Video
ID : 1
Format : AVC
Format/Info : Advanced Video Codec
Format profile : High@L4.1
Format settings, CABAC : Yes
Format settings, ReFrames : 5 frames
Codec ID : V_MPEG4/ISO/AVC
Duration : 1h 53mn
Bit rate : 1 700 Kbps
Width : 1 024 pixels
Height : 576 pixels
Display aspect ratio : 16:9
Frame rate mode : Constant
Frame rate : 25.000 fps
Color space : YUV
Chroma subsampling : 4:2:0
Bit depth : 8 bits
Scan type : Progressive
Bits/(Pixel*Frame) : 0.115
Stream size : 1.32 GiB (88%)
Writing library : x264 core 130 r2273 b3065e6
Encoding settings : cabac=1 / ref=5 / deblock=1:-2:-2 / analyse=0x3:0x111 / me=umh / subme=9 / psy=1 / psy_rd=0.00:0.10 / mixed_ref=1 / me_range=32 / chroma_me=1 / trellis=2 / 8x8dct=1 / cqm=0 / deadzone=21,11 / fast_pskip=0 / chroma_qp_offset=-1 / threads=6 / lookahead_threads=1 / sliced_threads=0 / nr=0 / decimate=1 / interlaced=0 / bluray_compat=0 / constrained_intra=0 / bframes=5 / b_pyramid=2 / b_adapt=0 / b_bias=0 / direct=1 / weightb=1 / open_gop=0 / weightp=2 / keyint=250 / keyint_min=25 / scenecut=40 / intra_refresh=0 / rc_lookahead=50 / rc=2pass / mbtree=1 / bitrate=1700 / ratetol=1.0 / qcomp=0.60 / qpmin=0 / qpmax=69 / qpstep=4 / cplxblur=20.0 / qblur=0.5 / ip_ratio=1.40 / aq=1:1.00
Default : Yes
Forced : No

Audio
ID : 2
Format : AC-3
Format/Info : Audio Coding 3
Mode extension : CM (complete main)
Format settings, Endianness : Big
Codec ID : A_AC3
Duration : 1h 53mn
Bit rate mode : Constant
Bit rate : 192 Kbps
Channel(s) : 2 channels
Channel positions : Front: L R
Sampling rate : 48.0 KHz
Bit depth : 16 bits
Compression mode : Lossy
Stream size : 156 MiB (10%)
Default : Yes
Forced : No
Релиз от: &



Скачать Макс.и.Иеремия.Max.&.Jeremie.(Клер.Девер).[1992.триллер.драма.криминал.DVDRip-AVC].[MVO].torrent без регистрации
Золото ЗОЛОТАЯ РАЗДАЧА! СКАЧАННОЕ НЕ ЗАСЧИТЫВАЕТСЯ! Золото
Дата: Зарегистрирован   [ Тип: внутренний ] Как тут cкачать?
MAGNET ссылка
MAGNET ссылка


Скачать .torrent

16 KB

Статус: проверено DHT
Скачан: торрент - 143 раз, раздача полностью - 2 раз
Размер: 1,5 GB
Оценка:  - (Голосов: 0)
Поблагодарили: 2
Поделиться ссылкой на эту раздачу с друзьями:
В контактеFacebookОдноклассникиTwitterLivejournalМой МирLiveinternet
 

 
Показать сообщения:    


Вы не можете начинать темы
Вы не можете отвечать на сообщения
Вы не можете редактировать свои сообщения
Вы не можете удалять свои сообщения
Вы не можете голосовать в опросах
Вы не можете прикреплять файлы к сообщениям
Вы можете скачивать файлы