Loading...
Error

Скачать Метеор-убийца / Feng yu shuang liu xing (Ло Вэй) [1976, боевик, триллер, BDRip-AVC] [MVO]x2+[AVO]+[Dub]+[Sub]x2 торрент без регистрации

 
Статистика раздачи
Размер:  2,9 GB   |    Скачан:  112 раз

Полного источника не было: 29 минут

 
Автор Сообщение

Marsianka

[] 

Информация о фильме
Название: Метеор-убийца
Оригинальное название: Feng yu shuang liu xing / The Killer Meteors
Год выхода: 1976
Жанр: боевик, триллер
Режиссер: Ло Вэй
В ролях: Ю Ванг, Джеки Чан, Линг Ланг Ю, Хуи Лу Чен, Чинг Куо Чунг, Ксуе Ан, Ан Чанг Ху, Ву Вэй

О фильме: Странствующий воин по имени Метеор оказывается втянутым в темную историю с супружеской неверностью, ограблением, убийством и отравлениями. Таинственный богач Ва нанимает Метеора, чтобы убить собственную жену — по словам Ва, та заводит романы направо и налево и даже пыталась отравить своего мужа, чтобы заграбастать себе все его состояние. Метеор не особенно верит в слова заказчика и вообще не хочет влезать в чужие семейные дрязги, но ему просто не оставляют выбора…



Страна: Гонконг, Тайвань
Студия: Lo Wei Motion Picture Co.
Продолжительность: 01:44:36
Перевод: Профессиональный многоголосый, авторский одноголосый (Визгунов)

Файл
Кодек: MPEG-4 AVC
Качество: BDRip-AVC
Видео: 3000 Кбит/с, 1024x430, 23.976 кадр/с
Аудио #1: Русский (AC3, 2 ch, 192 Кбит/с) / Профессиональный многоголосый (СТС)
Аудио #2: Русский (AC3, 2 ch, 192 Кбит/с) / Профессиональный многоголосый (ТВ-6)
Аудио #3: Русский (AC3, 2 ch, 192 Кбит/с) / Авторский одноголосый (Визгунов)
Аудио #4: Английский (AC3, 2 ch, 192 Кбит/с) / Дублированный
Аудио #5: Китайский (AC3, 2 ch, 192 Кбит/с)
Субтитры: Русские, английские
Джеки Чан играет в этом фильме не главную роль.

Семпл
Общее
Уникальный идентификатор : 219781453243055118550448977828491996930 (0xA5585E427F68F19B82CE46B618E2AF02)
Полное имя : D:Мои РипыMeteor.ubijca.1976.x264.BDRip.AVC.MediaClub.mkv
Формат : Matroska
Версия формата : Version 4 / Version 2
Размер файла : 2,90 Гбайт
Продолжительность : 1 ч. 44 м.
Общий поток : 3963 Кбит/сек
Название фильма : = MediaClub = rip by krakatuq
Дата кодирования : UTC 2015-03-15 16:20:26
Программа кодирования : mkvmerge v6.6.0 ('The Edge Of The In Between') built on Dec 1 2013 17:55:00
Библиотека кодирования : libebml v1.3.0 + libmatroska v1.4.1

Видео
Идентификатор : 1
Формат : AVC
Формат/Информация : Advanced Video Codec
Профиль формата : High@L4.1
Параметр CABAC формата : Да
Параметр ReFrames формата : 10 кадров
Идентификатор кодека : V_MPEG4/ISO/AVC
Продолжительность : 1 ч. 44 м.
Битрейт : 3000 Кбит/сек
Ширина : 1024 пикселя
Высота : 430 пикселей
Соотношение сторон : 2,40:1
Режим частоты кадров : Постоянный
Частота кадров : 23,976 кадра/сек
Цветовое пространство : YUV
Субдискретизация насыщенности : 4:2:0
Битовая глубина : 8 бит
Тип развёртки : Прогрессивная
Бит/(Пиксели*Кадры) : 0.284
Размер потока : 2,14 Гбайт (74%)
Заголовок : Meteor.ubijca.1976.x264.BDRip.AVC.MediaClub
Библиотека кодирования : x264 core 142 r2409+42 04be48a tMod [8-bit@4:2:0 X86]
Настройки программы : cabac=1 / ref=10 / deblock=1:-2:-2 / analyse=0x3:0x133 / me=umh / subme=11 / psy=1 / fade_compensate=0.00 / psy_rd=1.00:0.15 / mixed_ref=1 / me_range=32 / chroma_me=1 / trellis=2 / 8x8dct=1 / cqm=0 / deadzone=21,11 / fast_pskip=0 / chroma_qp_offset=-3 / threads=3 / lookahead_threads=1 / sliced_threads=0 / nr=0 / decimate=0 / interlaced=0 / bluray_compat=0 / constrained_intra=0 / fgo=0 / bframes=9 / b_pyramid=2 / b_adapt=2 / b_bias=0 / direct=3 / weightb=1 / open_gop=0 / weightp=2 / keyint=240 / keyint_min=23 / scenecut=40 / intra_refresh=0 / rc=2pass / mbtree=0 / bitrate=3000 / ratetol=1.0 / qcomp=0.60 / qpmin=0:0:0 / qpmax=69:69:69 / qpstep=4 / cplxblur=20.0 / qblur=0.5 / ip_ratio=1.40 / pb_ratio=1.30 / aq=2:1.00 / aq-sensitivity=10.00 / aq-factor=1.00:1.00:1.00 / aq2=0 / aq3=0
Язык : Chinese
Default : Да
Forced : Нет

Аудио #1
Идентификатор : 2
Формат : AC-3
Формат/Информация : Audio Coding 3
Расширение режима : CM (complete main)
Параметр Endianness формата : Big
Идентификатор кодека : A_AC3
Продолжительность : 1 ч. 44 м.
Вид битрейта : Постоянный
Битрейт : 192 Кбит/сек
Каналы : 2 канала
Расположение каналов : Front: L R
Частота : 48,0 КГц
Битовая глубина : 16 бит
Метод сжатия : С потерями
Размер потока : 144 Мбайт (5%)
Заголовок : TRACK_01_MVO_RUS_СТС
Язык : Russian
Default : Да
Forced : Да

Аудио #2
Идентификатор : 3
Формат : AC-3
Формат/Информация : Audio Coding 3
Расширение режима : CM (complete main)
Параметр Endianness формата : Big
Идентификатор кодека : A_AC3
Продолжительность : 1 ч. 44 м.
Вид битрейта : Постоянный
Битрейт : 192 Кбит/сек
Каналы : 2 канала
Расположение каналов : Front: L R
Частота : 48,0 КГц
Битовая глубина : 16 бит
Метод сжатия : С потерями
Размер потока : 144 Мбайт (5%)
Заголовок : TRACK_02_MVO_RUS_ТВ-6
Язык : Russian
Default : Нет
Forced : Нет

Аудио #3
Идентификатор : 4
Формат : AC-3
Формат/Информация : Audio Coding 3
Расширение режима : CM (complete main)
Параметр Endianness формата : Big
Идентификатор кодека : A_AC3
Продолжительность : 1 ч. 44 м.
Вид битрейта : Постоянный
Битрейт : 192 Кбит/сек
Каналы : 2 канала
Расположение каналов : Front: L R
Частота : 48,0 КГц
Битовая глубина : 16 бит
Метод сжатия : С потерями
Размер потока : 144 Мбайт (5%)
Заголовок : TRACK_03_AVO_RUS_VIZGUNOV
Язык : Russian
Default : Нет
Forced : Нет

Аудио #4
Идентификатор : 5
Формат : AC-3
Формат/Информация : Audio Coding 3
Расширение режима : CM (complete main)
Параметр Endianness формата : Big
Идентификатор кодека : A_AC3
Продолжительность : 1 ч. 44 м.
Вид битрейта : Постоянный
Битрейт : 192 Кбит/сек
Каналы : 2 канала
Расположение каналов : Front: L R
Частота : 48,0 КГц
Битовая глубина : 16 бит
Метод сжатия : С потерями
Размер потока : 144 Мбайт (5%)
Заголовок : TRACK_04_DUB_ENG
Язык : English
Default : Нет
Forced : Нет

Аудио #5
Идентификатор : 6
Формат : AC-3
Формат/Информация : Audio Coding 3
Расширение режима : CM (complete main)
Параметр Endianness формата : Big
Идентификатор кодека : A_AC3
Продолжительность : 1 ч. 44 м.
Вид битрейта : Постоянный
Битрейт : 192 Кбит/сек
Каналы : 2 канала
Расположение каналов : Front: L R
Частота : 48,0 КГц
Битовая глубина : 16 бит
Метод сжатия : С потерями
Размер потока : 144 Мбайт (5%)
Заголовок : TRACK_05_ORIGINAL_CHI
Язык : Chinese
Default : Нет
Forced : Нет

Текст #1
Идентификатор : 7
Формат : UTF-8
Идентификатор кодека : S_TEXT/UTF8
Идентификатор кодека/Информация : UTF-8 Plain Text
Заголовок : TEXT_01_SUB_RUS
Язык : Russian
Default : Нет
Forced : Нет

Текст #2
Идентификатор : 8
Формат : UTF-8
Идентификатор кодека : S_TEXT/UTF8
Идентификатор кодека/Информация : UTF-8 Plain Text
Заголовок : TEXT_02_SUB_ENG
Язык : English
Default : Нет
Forced : Нет

Меню
00:00:00.000 : en:00:00:00.000
00:08:46.984 : en:00:08:46.984
00:16:49.758 : en:00:16:49.758
00:24:16.121 : en:00:24:16.121
00:34:01.122 : en:00:34:01.122
00:44:34.963 : en:00:44:34.963
00:55:46.259 : en:00:55:46.259
01:04:41.502 : en:01:04:41.502
01:12:45.486 : en:01:12:45.486
01:19:00.068 : en:01:19:00.068
01:26:07.537 : en:01:26:07.537
01:35:15.126 : en:01:35:15.126

x264 log
x264 [info]: frame I:993 Avg QP:16.76 size: 62721
x264 [info]: frame P:33333 Avg QP:19.48 size: 27052
x264 [info]: frame B:116160 Avg QP:20.84 size: 11964

• За исходник спасибо HDClub
Релиз от: | Автор рипа:



Скачать Метеор-убийца.Feng.yu.shuang.liu.xing.(Ло.Вэй).[1976.боевик.триллер.BDRip-AVC].[MVO]x2+[AVO]+[Dub]+[Sub]x2.torrent без регистрации
Золото ЗОЛОТАЯ РАЗДАЧА! СКАЧАННОЕ НЕ ЗАСЧИТЫВАЕТСЯ! Золото
Дата: Зарегистрирован   [ Тип: внутренний ] Как тут cкачать?
MAGNET ссылка
MAGNET ссылка


Скачать .torrent

15 KB

Статус: проверено DHT
Скачан: торрент - 112 раз, раздача полностью - 1 раз
Размер: 2,9 GB
Оценка:  - (Голосов: 0)
Поблагодарили: 1
Поделиться ссылкой на эту раздачу с друзьями:
В контактеFacebookОдноклассникиTwitterLivejournalМой МирLiveinternet
 

 
Показать сообщения:    


Вы не можете начинать темы
Вы не можете отвечать на сообщения
Вы не можете редактировать свои сообщения
Вы не можете удалять свои сообщения
Вы не можете голосовать в опросах
Вы не можете прикреплять файлы к сообщениям
Вы можете скачивать файлы