Loading...
Error

Скачать Двухсотлетний человек / Bicentennial Man (Крис Коламбус) [1999, фантастика, фэнтези, драма, мелодрама, HDTVRip] [Dub] торрент без регистрации

 
Статистика раздачи
Размер:  1,46 GB   |    Скачан:  130 раз
Сидов:  38  [  0 KB/s  ]  
 
Автор Сообщение

Marsianka

[] 

Двухсотлетний человек / Bicentennial Man
Год выпуска: 1999
Страна: США, Германия
Жанр: фантастика, фэнтези, драма, мелодрама
Продолжительность: 02:06:03
Перевод: Профессиональный (дублированный)
Русские субтитры: нет

Режиссер: Крис Коламбус / Chris Columbus

В ролях: Робин Уильямс, Эмбет Дэвидц, Сэм Нилл, Оливер Плэтт, Кирстен Уоррен, Венди Крюсон, Халли Кейт Айзенберг, Анджела Лэндис, Джон Майкл Хиггинс и др.

Описание: Начало нового тысячелетия; происходит прорыв в глобальных технологиях. Люди уже не заводят дома собак и кошек: они покупают себе роботов. Вот и семья Мартинов приобретает себе необычный подарок: робота нового поколения NDR-114, а в обычной жизни просто Эндрю.
Купленный как прибор, запрограммированный для выполнения домашней работы, Эндрю вдруг начинает испытывать странные ощущения. Он еще не знает, что это называется чувствами.



Качество: HDTVRip [Исходник HDTV 720p]
Формат: AVI
Видео кодек: XviD
Аудио кодек: AC3
Видео: 688x384 (1.79:1), 25 fps, XviD build 73 ~1460 kbps avg, 0.22 bit/pixel
Аудио: 48 kHz, AC3 Dolby Digital, 2/0 (L,R) ch, ~192 kbps
Раздача от:
D:Мои рипыBicentennial.Man.1999.hdtvrip.dexter_lex.avi
General
Complete name : D:Мои рипыBicentennial.Man.1999.hdtvrip.dexter_lex.avi
Format : AVI
Format/Info : Audio Video Interleave
File size : 1.46 GiB
Duration : 2h 6mn
Overall bit rate : 1 662 Kbps
Writing application : VirtualDubMod 1.5.10.3 | www.virtualdub-fr.org || (build 2550/release)
Writing library : VirtualDubMod build 2550/release
Video #0
ID : 0
Format : MPEG-4 Visual
Format profile : Advanced Simple@L5
Format settings, BVOP : 1
Format settings, QPel : No
Format settings, GMC : No warppoints
Format settings, Matrix : Custom
Codec ID : XVID
Codec ID/Hint : XviD
Duration : 2h 6mn
Bit rate : 1 461 Kbps
Width : 688 pixels
Height : 384 pixels
Display aspect ratio : 16:9
Frame rate : 25.000 fps
Color space : YUV
Chroma subsampling : 4:2:0
Bit depth : 8 bits
Scan type : Progressive
Compression mode : Lossy
Bits/(Pixel*Frame) : 0.221
Stream size : 1.29 GiB (88%)
Writing library : XviD 73
Audio #1
ID : 1
Format : AC-3
Format/Info : Audio Coding 3
Mode extension : CM (complete main)
Codec ID : 2000
Duration : 2h 6mn
Bit rate mode : Constant
Bit rate : 192 Kbps
Channel(s) : 2 channels
Channel positions : Front: L R
Sampling rate : 48.0 KHz
Bit depth : 16 bits
Compression mode : Lossy
Stream size : 173 MiB (12%)
Alignment : Split accross interleaves
Interleave, duration : 40 ms (1.00 video frame)
Interleave, preload duration : 500 ms



Скачать Двухсотлетний.человек.Bicentennial.Man.(Крис.Коламбус).[1999.фантастика.фэнтези.драма.мелодрама.HDTVRip].[Dub].torrent без регистрации
Золото ЗОЛОТАЯ РАЗДАЧА! СКАЧАННОЕ НЕ ЗАСЧИТЫВАЕТСЯ! Золото
Дата: Зарегистрирован   [ Тип: внешний ] Как тут cкачать?
MAGNET ссылка
MAGNET ссылка


Скачать .torrent

15 KB

Статус: проверено DHT
Скачан: торрент - 130 раз, раздача полностью - 291 раз
Размер: 1,46 GB
Оценка:  - (Голосов: 0)
Поблагодарили: 3
Поделиться ссылкой на эту раздачу с друзьями:
В контактеFacebookОдноклассникиTwitterLivejournalМой МирLiveinternet
 

 
Показать сообщения:    


Вы не можете начинать темы
Вы не можете отвечать на сообщения
Вы не можете редактировать свои сообщения
Вы не можете удалять свои сообщения
Вы не можете голосовать в опросах
Вы не можете прикреплять файлы к сообщениям
Вы можете скачивать файлы