Loading...
Error

Скачать Ты лучше смотри в оба / You Better Watch Out (1980) BDRip-AVC] [AVO (А. Дольский)]+[Оригинал] торрент без регистрации

 
Статистика раздачи
Размер:  3,11 GB   |    Скачан:  106 раз
Сидов:  1  [  0 KB/s  ]  
 
Автор Сообщение

Marsianka

[] 

Ты лучше смотри в оба / You Better Watch Out
Страна: США
Жанр: слэшер, ужасы, триллер
Год выпуска: 1980
Продолжительность: 01:34:12

Перевод: Авторский (одноголосый закадровый), А. Дольский
Cубтитры: нет
Оригинальная аудиодорожка: английский

Режиссер: Льюис Джексон / Lewis Jackson

В ролях: Брэндон Мэггарт, Джефри ДеМанн, Дайян Халл, Энди Фенвик, Брайан Невилл, Джо Джамрог, Уолли Моран, Гас Салуд, Эллен МакЭлдафф, Брайан Хэртиган

Описание: Канун рождества 1947 года. Маленький мальчик Гарри случайно видит, как его мать занимается оральным сексом с мужчиной в наряде Санта — Клауса. Гарри выбегает из дома и в припадке ревности ломает стоящего во дворе снеговика, растаптывая снег на мелкие кусочки. Проходит много лет. Гарри очень трепетно относится к рождественским праздникам и обожает Санта Клауса. Он даже работает на кукольной фабрике «Jolly Dream Toy Factory», изготавливающей рождественские игрушки. Но разум Гарри настолько поврежден, что он пристально наблюдает за детьми и заносит их имена в две свои книги: «Плохие дети» и «Хорошие дети». Оказаться в том или ином списке ребёнок может в соответствии со своим отношением к рождеству. Постепенно безумие Гарри начинает принимать насильственные формы...



Дополнительно: за работу над дорогой благодарим Linger babe

Исходник: You Better Watch Out 1980 1080p Blu-ray AVC DTS-HD MA 1.0-BIZON1984 @ HDBits
Качество видео: BDRip-AVC | | sample
Формат видео: MKV
Видео кодек: x264
Видео: AVC 960x540 (16:9), 23.976 fps, ~4400 Kbps, 0.35 bit/pixel
Аудио #1: Russian AC3 2ch 48kHz 192Kbps | AVO Дольский
Аудио #2: English AC3 1ch 48kHz 128Kbps | Original
Главы: есть

General
Complete name : E:...You.Better.Watch.Out.1980.BDRip.x264.DD2.0.Rus.AVO.Eng-E76.mkv
Format : Matroska
Format version : Version 2
File size : 3.11 GiB
Duration : 1h 34mn
Overall bit rate : 4 724 Kbps
Movie name : You.Better.Watch.Out.1980.BDRip.x264.DD2.0.Rus.AVO.Eng-E76
Encoded date : UTC 2015-02-20 06:10:57
Writing application : mkvmerge v7.0.0 ('Where We Going') 64bit built on Jun 9 2014 15:16:27
Writing library : libebml v1.3.0 + libmatroska v1.4.1

Video
ID : 1
Format : AVC
Format/Info : Advanced Video Codec
Format profile : High@L4.1
Format settings, CABAC : Yes
Format settings, ReFrames : 12 frames
Codec ID : V_MPEG4/ISO/AVC
Duration : 1h 34mn
Bit rate : 4 310 Kbps
Width : 960 pixels
Height : 540 pixels
Display aspect ratio : 16:9
Frame rate mode : Constant
Frame rate : 23.976 fps
Color space : YUV
Chroma subsampling : 4:2:0
Bit depth : 8 bits
Scan type : Progressive
Bits/(Pixel*Frame) : 0.347
Stream size : 2.84 GiB (91%)
Title : You Better Watch Out (1980)
Writing library : x264 core 142 r2491kMod 24e4fed
Encoding settings : cabac=1 / ref=12 / deblock=1:-3:-2 / analyse=0x3:0x113 / me=umh / subme=10 / psy=1 / fade_compensate=0.00 / psy_rd=1.10:0.00 / mixed_ref=1 / me_range=32 / chroma_me=1 / trellis=2 / 8x8dct=1 / cqm=0 / deadzone=21,11 / fast_pskip=1 / chroma_qp_offset=-2 / threads=6 / lookahead_threads=1 / sliced_threads=0 / nr=0 / decimate=1 / interlaced=0 / bluray_compat=0 / constrained_intra=0 / fgo=0 / bframes=16 / b_pyramid=2 / b_adapt=2 / b_bias=0 / direct=1 / weightb=1 / open_gop=0 / weightp=2 / keyint=240 / keyint_min=23 / scenecut=40 / intra_refresh=0 / rc_lookahead=0 / rc=crf / mbtree=0 / crf=19.7500 / qcomp=0.60 / qpmin=0 / qpmax=69 / qpstep=4 / vbv_maxrate=62500 / vbv_bufsize=78125 / crf_max=0.0 / nal_hrd=none / filler=0 / ip_ratio=1.40 / pb_ratio=1.10 / aq=1:1.00 / zones=130970,135520,q=30
Language : English
Default : Yes
Forced : No
Matrix coefficients : BT.709

Audio #1
ID : 2
Format : AC-3
Format/Info : Audio Coding 3
Mode extension : CM (complete main)
Format settings, Endianness : Big
Codec ID : A_AC3
Duration : 1h 34mn
Bit rate mode : Constant
Bit rate : 192 Kbps
Channel(s) : 2 channels
Channel positions : Front: L R
Sampling rate : 48.0 KHz
Bit depth : 16 bits
Compression mode : Lossy
Stream size : 129 MiB (4%)
Title : AVO Dolsky
Language : Russian
Default : Yes
Forced : No

Audio #2
ID : 3
Format : AC-3
Format/Info : Audio Coding 3
Mode extension : CM (complete main)
Format settings, Endianness : Big
Codec ID : A_AC3
Duration : 1h 34mn
Bit rate mode : Constant
Bit rate : 128 Kbps
Channel(s) : 1 channel
Channel positions : Front: C
Sampling rate : 48.0 KHz
Bit depth : 16 bits
Compression mode : Lossy
Stream size : 86.2 MiB (3%)
Title : Original
Language : English
Default : No
Forced : No

Menu
00:00:00.000 : en:00:00:00.000
00:19:37.551 : en:00:19:37.551
00:33:00.520 : en:00:33:00.520
00:52:14.214 : en:00:52:14.214
01:09:09.354 : en:01:09:09.354
01:26:08.163 : en:01:26:08.163

--[Information] [14.01.2015 14:19:05] x264 [info]: frame I:940 Avg QP:18.44 size: 75687
--[Information] [14.01.2015 14:19:05] x264 [info]: frame P:22628 Avg QP:20.59 size: 29936
--[Information] [14.01.2015 14:19:05] x264 [info]: frame B:111953 Avg QP:21.40 size: 21096
--[Information] [14.01.2015 14:19:05] x264 [info]: consecutive B-frames: 0.9% 0.7% 2.2% 9.8% 11.4% 44.2% 8.0% 2.6% 5.4% 1.9% 2.7% 4.3% 2.0% 0.9% 1.7% 0.3% 0.9%
--[Information] [14.01.2015 14:19:05] x264 [info]: kb/s:4402.10



Скачать Ты.лучше.смотри.в.оба.You.Better.Watch.Out.(1980).BDRip-AVC].[AVO.(А.Дольский)]+[Оригинал].torrent без регистрации
Золото ЗОЛОТАЯ РАЗДАЧА! СКАЧАННОЕ НЕ ЗАСЧИТЫВАЕТСЯ! Золото
Дата: Зарегистрирован   [ Тип: внутренний ] Как тут cкачать?
MAGNET ссылка
MAGNET ссылка


Скачать .torrent

16 KB

Статус: проверено DHT
Скачан: торрент - 106 раз, раздача полностью - 4 раз
Размер: 3,11 GB
Оценка:  - (Голосов: 0)
Поблагодарили: 1
Поделиться ссылкой на эту раздачу с друзьями:
В контактеFacebookОдноклассникиTwitterLivejournalМой МирLiveinternet
 

 
Показать сообщения:    


Вы не можете начинать темы
Вы не можете отвечать на сообщения
Вы не можете редактировать свои сообщения
Вы не можете удалять свои сообщения
Вы не можете голосовать в опросах
Вы не можете прикреплять файлы к сообщениям
Вы можете скачивать файлы