Loading...
Error

Скачать Бостонский душитель / The Boston Strangler (Ричард Флейшер) [1968, триллер, драма, криминал, детектив, экранизация, BDRip-AVC] [MVO]x2+[Sub]x3 торрент без регистрации

 
Статистика раздачи
Размер:  1,55 GB   |    Скачан:  114 раз
Сидов:  1  [  0 KB/s  ]   Личеров:  1  [  0 KB/s  ]  
 
Автор Сообщение

Marsianka

[] 

Информация о фильме
Название: Бостонский душитель
Оригинальное название: The Boston Strangler
Год выпуска: 1968
Жанр: триллер, драма, криминал, детектив, экранизация
Режиссер: Ричард Флейшер
В ролях: Тони Кёртис, Генри Фонда, Джордж Кеннеди, Майк Келлин, Хёрд Хэтфилд, Мюррэй Хэмилтон, Джефф Кори, Салли Келлермен, Уильям Маршалл, Джордж Восковек

О фильме: В Бостоне и близлежащих районах в период с июня 1962 по январь 1964 годы были убиты и изнасилованы одиннадцать женщин. Полиция во главе с Джоном Боттомли находится в тупике. Преступник не оставляет практически никаких улик. Не помогает даже привлечение к расследованию экстрасенса. В конце концов, убийцу ловят. Экранизация по произведению Джеролда Фрэнка.



Страна: США
Студия: 20th Century Fox Film Corporation
Продолжительность: 01:56:11
Перевод: Профессиональный многоголосый

Файл
Кодек: x264
Качество: BDRip (AVC)
Видео: MPEG-4 AVC, 1333 Кбит/с, 1024x436, 23.976 кадр/с
Аудио #1: Русский (AC3, 2 ch, 192 Кбит/с) / Профессиональный многоголосый (20th century Fox)
Аудио #2: Русский (AC3, 2 ch, 192 Кбит/с) / Профессиональный многоголосый (Петербург - 5 канал)
Аудио #3: Английский (AC3, 2 ch, 192 Кбит/с)
Субтитры: Русские, украинские, английские
Семпл

За исходник спасибо команде HDclub и персонально AnryV
x264 [info]: frame I:1008 Avg QP:14.55 size: 57950
x264 [info]: frame P:38714 Avg QP:18.01 size: 16261
x264 [info]: frame B:127424 Avg QP:20.07 size: 3718

=================================

Уникальный идентификатор : 203579142015487047696646696533487414122 (0x9927EAA4123E639F86B483B17A3E6B6A)
Полное имя : E:MCBostonskiy.duschitel.1968.x264.BDRip(AVC)-MediaClubBostonskiy.duschitel.1968.x264.BDRip(AVC)-MediaClub.mkv
Формат : Matroska
Версия формата : Version 4 / Version 2
Размер файла : 1,55 Гбайт
Продолжительность : 1 ч. 56 м.
Общий поток : 1912 Кбит/сек
Название фильма : -= Release MediaClub =-
Дата кодирования : UTC 2015-03-16 17:45:49
Программа кодирования : mkvmerge v7.3.0 ('Nouages') 64bit built on Oct 22 2014 18:53:34
Библиотека кодирования : libebml v1.3.0 + libmatroska v1.4.1
DURATION : 01:56:11.424000000
NUMBER_OF_FRAMES : 217857
NUMBER_OF_BYTES : 167314176
_STATISTICS_WRITING_APP : mkvmerge v7.3.0 ('Nouages') 64bit built on Oct 22 2014 18:53:34
_STATISTICS_WRITING_DATE_UTC : 2015-03-16 17:45:49
_STATISTICS_TAGS : BPS DURATION NUMBER_OF_FRAMES NUMBER_OF_BYTES

Видео
Идентификатор : 1
Формат : AVC
Формат/Информация : Advanced Video Codec
Профиль формата : High@L4.1
Параметр CABAC формата : Да
Параметр ReFrames формата : 10 кадров
Идентификатор кодека : V_MPEG4/ISO/AVC
Продолжительность : 1 ч. 56 м.
Битрейт : 1333 Кбит/сек
Ширина : 1024 пикселя
Высота : 436 пикселей
Соотношение сторон : 2,35:1
Режим частоты кадров : Постоянный
Частота кадров : 23,976 кадра/сек
Цветовое пространство : YUV
Субдискретизация насыщенности : 4:2:0
Битовая глубина : 8 бит
Тип развёртки : Прогрессивная
Бит/(Пиксели*Кадры) : 0.125
Размер потока : 1,05 Гбайт (68%)
Заголовок : Bostonskiy.duschitel.1968.x264.BDRip(AVC)-neni
Библиотека кодирования : x264 core 142 r2409+42 04be48a tMod [8-bit@4:2:0 X86_64]
Настройки программы : cabac=1 / ref=10 / deblock=1:-3:-3 / analyse=0x3:0x133 / me=umh / subme=11 / psy=1 / fade_compensate=0.00 / psy_rd=1.00:0.30 / mixed_ref=1 / me_range=48 / chroma_me=1 / trellis=2 / 8x8dct=1 / cqm=0 / deadzone=21,11 / fast_pskip=0 / chroma_qp_offset=-4 / threads=9 / lookahead_threads=1 / sliced_threads=0 / nr=0 / decimate=0 / interlaced=0 / bluray_compat=0 / constrained_intra=0 / fgo=0 / bframes=8 / b_pyramid=2 / b_adapt=2 / b_bias=0 / direct=3 / weightb=1 / open_gop=0 / weightp=2 / keyint=240 / keyint_min=23 / scenecut=40 / intra_refresh=0 / rc=2pass / mbtree=0 / bitrate=1333 / ratetol=1.0 / qcomp=0.60 / qpmin=0:0:0 / qpmax=69:69:69 / qpstep=4 / cplxblur=20.0 / qblur=0.5 / ip_ratio=1.40 / pb_ratio=1.30 / aq=2:1.00 / aq-sensitivity=10.00 / aq-factor=1.00:1.00:1.00 / aq2=0 / aq3=0
Язык : English
Default : Да
Forced : Нет
DURATION : 01:56:11.381000000
NUMBER_OF_FRAMES : 167146
NUMBER_OF_BYTES : 1161732094
_STATISTICS_WRITING_APP : mkvmerge v7.3.0 ('Nouages') 64bit built on Oct 22 2014 18:53:34
_STATISTICS_WRITING_DATE_UTC : 2015-03-16 17:45:49
_STATISTICS_TAGS : BPS DURATION NUMBER_OF_FRAMES NUMBER_OF_BYTES

Аудио #1
Идентификатор : 2
Формат : AC-3
Формат/Информация : Audio Coding 3
Профиль формата : Dolby Digital
Расширение режима : CM (complete main)
Параметр Endianness формата : Big
Идентификатор кодека : A_AC3
Продолжительность : 1 ч. 56 м.
Вид битрейта : Постоянный
Битрейт : 192 Кбит/сек
Каналы : 2 канала
Расположение каналов : Front: L R
Частота : 48,0 КГц
Битовая глубина : 16 бит
Метод сжатия : С потерями
Размер потока : 160 Мбайт (10%)
Заголовок : • Русский (AC3, 2 ch, 192 Кбит/с) - ПМ (20th century Fox)
Язык : Russian
Default : Да
Forced : Нет

Аудио #2
Идентификатор : 3
Формат : AC-3
Формат/Информация : Audio Coding 3
Профиль формата : Dolby Digital
Расширение режима : CM (complete main)
Параметр Endianness формата : Big
Идентификатор кодека : A_AC3
Продолжительность : 1 ч. 56 м.
Вид битрейта : Постоянный
Битрейт : 192 Кбит/сек
Каналы : 2 канала
Расположение каналов : Front: L R
Частота : 48,0 КГц
Битовая глубина : 16 бит
Метод сжатия : С потерями
Размер потока : 160 Мбайт (10%)
Заголовок : • Русский (AC3, 2 ch, 192 Кбит/с) - ПМ (Петербург - 5 канал)
Язык : Russian
Default : Нет
Forced : Нет

Аудио #3
Идентификатор : 4
Формат : AC-3
Формат/Информация : Audio Coding 3
Расширение режима : CM (complete main)
Параметр Endianness формата : Big
Идентификатор кодека : A_AC3
Продолжительность : 1 ч. 56 м.
Вид битрейта : Постоянный
Битрейт : 192 Кбит/сек
Каналы : 2 канала
Расположение каналов : Front: L R
Частота : 48,0 КГц
Битовая глубина : 16 бит
Метод сжатия : С потерями
Размер потока : 160 Мбайт (10%)
Заголовок : • Английский (AC3, 2 ch, 192 Кбит/с) - (Original from BD)
Язык : English
Default : Нет
Forced : Нет

Текст #1
Идентификатор : 5
Формат : UTF-8
Идентификатор кодека : S_TEXT/UTF8
Идентификатор кодека/Информация : UTF-8 Plain Text
Язык : Russian
Default : Нет
Forced : Нет

Текст #2
Идентификатор : 6
Формат : UTF-8
Идентификатор кодека : S_TEXT/UTF8
Идентификатор кодека/Информация : UTF-8 Plain Text
Язык : Ukrainian
Default : Нет
Forced : Нет

Текст #3
Идентификатор : 7
Формат : UTF-8
Идентификатор кодека : S_TEXT/UTF8
Идентификатор кодека/Информация : UTF-8 Plain Text
Язык : English
Default : Нет
Forced : Нет

Меню
00:00:00.000 : en:00:00:00.000
00:02:59.388 : en:00:02:59.388
00:07:40.335 : en:00:07:40.335
00:11:25.560 : en:00:11:25.560
00:17:41.102 : en:00:17:41.102
00:22:31.308 : en:00:22:31.308
00:25:50.340 : en:00:25:50.340
00:28:51.688 : en:00:28:51.688
00:35:38.553 : en:00:35:38.553
00:39:01.089 : en:00:39:01.089
00:44:51.105 : en:00:44:51.105
00:52:33.609 : en:00:52:33.609
00:58:32.926 : en:00:58:32.926
01:00:16.988 : en:01:00:16.988
01:05:16.746 : en:01:05:16.746
01:11:49.597 : en:01:11:49.597
01:15:30.526 : en:01:15:30.526
01:21:18.916 : en:01:21:18.916
01:23:41.099 : en:01:23:41.099
01:33:10.251 : en:01:33:10.251
01:36:19.357 : en:01:36:19.357
01:39:49.650 : en:01:39:49.650
01:41:59.113 : en:01:41:59.113
Релиз от: Rip by



Скачать Бостонский.душитель.The.Boston.Strangler.(Ричард.Флейшер).[1968.триллер.драма.криминал.детектив.экранизация.BDRip-AVC].[MVO]x2+[Sub]x3.torrent без регистрации
Золото ЗОЛОТАЯ РАЗДАЧА! СКАЧАННОЕ НЕ ЗАСЧИТЫВАЕТСЯ! Золото
Дата: Зарегистрирован   [ Тип: внутренний ] Как тут cкачать?
MAGNET ссылка
MAGNET ссылка


Скачать .torrent

16 KB

Статус: проверено DHT
Скачан: торрент - 114 раз, раздача полностью - 12 раз
Размер: 1,55 GB
Оценка:  5 (Голосов: 1)
Поблагодарили: 2
Поделиться ссылкой на эту раздачу с друзьями:
В контактеFacebookОдноклассникиTwitterLivejournalМой МирLiveinternet
 

 
Показать сообщения:    


Вы не можете начинать темы
Вы не можете отвечать на сообщения
Вы не можете редактировать свои сообщения
Вы не можете удалять свои сообщения
Вы не можете голосовать в опросах
Вы не можете прикреплять файлы к сообщениям
Вы можете скачивать файлы