Loading...
Error

Скачать Варвары времени / Time Barbarians (Джозеф Джон Барметтлер) [1990, фантастика, фэнтези, DVDRip-AVC] [AVO]+[Оригинал] торрент без регистрации

 
Статистика раздачи
Размер:  1,45 GB   |    Скачан:  113 раз
Сидов:  1  [  0 KB/s  ]  
 
Автор Сообщение

Marsianka

[] 

Варвары времени / Time Barbarians

Производство: США, Vista Street Entertainment
Год выпуска: 1990 г.
Жанр: фантастика, фэнтези
Продолжительность: 01:38:40

Перевод: Авторский (одноголосый, закадровый) [Алексеев]
Оригинальный аудиопоток: английский

Режиссер: Джозеф Джон Барметтлер / Joseph John Barmettler
В ролях: Дерон Макби, Джоан Айерс, Дэниэл Мартин, Луис Рот, Х.С. Смит, Гай Фьюри, Тимоти О’Салливан, Ингрид Вольд, Гари Моран, Жан Брайант
Описание: В древние времена волшебства и битв на мечах жило отдаленное племя варваров, которое сражалось с силами зла. Этих варваров защищал кристалл-амулет. Это фильм — история их короля. С помощью мистических сил главные герои переносятся из далекого прошлого в 20 век.


Качество видео: DVDRip-AVC
Контейнер: MKV
Видео кодек: H.264
Аудио кодек: AC3
Видео: 1687 Кбит/сек, 696x480@632x480, 23,976 кадра/сек, 0.211 Бит/(Пиксели*Кадры)
Аудио №1: 192 Кбит/сек, 2 канала, 48,0 КГц (Русский)
Аудио №2: 224 Кбит/сек, 2 канала, 48,0 КГц (Английский)
Cубтитры: отсутствуют

Общее
Уникальный идентификатор : 249494439568305979652871030570216256274 (0xBBB2E197209DAF948AD971C04FCEF312)
Формат : Matroska
Версия формата : Version 4 / Version 2
Размер файла : 1,45 Гбайт
Продолжительность : 1 ч. 38 м.
Общий поток : 2101 Кбит/сек
Дата кодирования : UTC 2015-03-17 18:58:46
Программа кодирования : mkvmerge v7.7.0 ('Six Voices') 64bit built on Feb 28 2015 23:39:33
Библиотека кодирования : libebml v1.3.1 + libmatroska v1.4.2
_STATISTICS_WRITING_APP : mkvmerge v7.7.0 ('Six Voices') 64bit built on Feb 28 2015 23:39:33
_STATISTICS_WRITING_DATE_UTC : 2015-03-17 18:58:46
_STATISTICS_TAGS : BPS DURATION NUMBER_OF_FRAMES NUMBER_OF_BYTES
DURATION : 01:36:30.432000000
NUMBER_OF_FRAMES : 180951
NUMBER_OF_BYTES : 162132096

Видео
Идентификатор : 1
Формат : AVC
Формат/Информация : Advanced Video Codec
Профиль формата : High@L4.0
Параметр CABAC формата : Да
Параметр ReFrames формата : 16 кадров
Идентификатор кодека : V_MPEG4/ISO/AVC
Продолжительность : 1 ч. 38 м.
Битрейт : 1687 Кбит/сек
Ширина : 696 пикселей
Высота : 480 пикселей
Соотношение сторон : 4:3
Режим частоты кадров : Постоянный
Частота кадров : 23,976 кадра/сек
Цветовое пространство : YUV
Субдискретизация насыщенности : 4:2:0
Битовая глубина : 8 бит
Тип развёртки : Прогрессивная
Бит/(Пиксели*Кадры) : 0.211
Размер потока : 1,13 Гбайт (78%)
Библиотека кодирования : x264 core 142 r2431 ac76440
Настройки программы : cabac=1 / ref=16 / deblock=1:0:0 / analyse=0x3:0x133 / me=umh / subme=10 / psy=1 / psy_rd=1.00:0.00 / mixed_ref=1 / me_range=24 / chroma_me=1 / trellis=2 / 8x8dct=1 / cqm=0 / deadzone=21,11 / fast_pskip=1 / chroma_qp_offset=-2 / threads=6 / lookahead_threads=1 / sliced_threads=0 / nr=0 / decimate=1 / interlaced=0 / bluray_compat=0 / constrained_intra=0 / bframes=8 / b_pyramid=2 / b_adapt=2 / b_bias=0 / direct=3 / weightb=1 / open_gop=0 / weightp=2 / keyint=240 / keyint_min=23 / scenecut=40 / intra_refresh=0 / rc_lookahead=60 / rc=2pass / mbtree=1 / bitrate=1687 / ratetol=1.0 / qcomp=0.60 / qpmin=0 / qpmax=69 / qpstep=4 / cplxblur=20.0 / qblur=0.5 / ip_ratio=1.40 / aq=1:1.00
Default : Да
Forced : Нет

Аудио #1
Идентификатор : 2
Формат : AC-3
Формат/Информация : Audio Coding 3
Расширение режима : CM (complete main)
Параметр Endianness формата : Big
Идентификатор кодека : A_AC3
Продолжительность : 1 ч. 38 м.
Вид битрейта : Постоянный
Битрейт : 192 Кбит/сек
Каналы : 2 канала
Расположение каналов : Front: L R
Частота : 48,0 КГц
Битовая глубина : 16 бит
Метод сжатия : С потерями
Размер потока : 136 Мбайт (9%)
Default : Да
Forced : Нет

Аудио #2
Идентификатор : 3
Формат : AC-3
Формат/Информация : Audio Coding 3
Расширение режима : CM (complete main)
Параметр Endianness формата : Big
Идентификатор кодека : A_AC3
Продолжительность : 1 ч. 38 м.
Вид битрейта : Постоянный
Битрейт : 224 Кбит/сек
Каналы : 2 канала
Расположение каналов : Front: L R
Частота : 48,0 КГц
Битовая глубина : 16 бит
Метод сжатия : С потерями
Размер потока : 158 Мбайт (11%)
Default : Нет
Forced : Нет

[Information] [17.03.2015 15:00:28] Standard error stream
-[Information] [17.03.2015 15:00:46] raw [info]: 696x480p 10:11 @ 24000/1001 fps (cfr)
-[Information] [17.03.2015 15:00:46] x264 [info]: using SAR=10/11
-[Information] [17.03.2015 15:00:46] x264 [info]: using cpu capabilities: MMX2 SSE2Fast SSSE3 SSE4.2 AVX
-[Information] [17.03.2015 15:00:46] x264 [info]: profile High, level 4.0
-[Information] [17.03.2015 20:29:06] x264 [info]: frame I:896 Avg QP:16.96 size: 42471
-[Information] [17.03.2015 20:29:06] x264 [info]: frame P:31497 Avg QP:19.33 size: 18685
-[Information] [17.03.2015 20:29:06] x264 [info]: frame B:109711 Avg QP:22.17 size: 5682
-[Information] [17.03.2015 20:29:06] x264 [info]: consecutive B-frames: 1.3% 2.5% 7.1% 27.3% 28.8% 25.0% 5.1% 1.9% 0.9%
-[Information] [17.03.2015 20:29:06] x264 [info]: mb I I16..4: 6.7% 79.3% 14.0%
-[Information] [17.03.2015 20:29:06] x264 [info]: mb P I16..4: 4.3% 19.2% 1.7% P16..4: 39.7% 21.1% 11.9% 0.3% 0.1% skip: 1.6%
-[Information] [17.03.2015 20:29:06] x264 [info]: mb B I16..4: 0.4% 2.1% 0.2% B16..8: 45.4% 10.1% 2.2% direct: 8.4% skip:31.1% L0:41.8% L1:48.2% BI:10.0%
-[Information] [17.03.2015 20:29:06] x264 [info]: 8x8 transform intra:76.5% inter:70.2%
-[Information] [17.03.2015 20:29:06] x264 [info]: direct mvs spatial:97.3% temporal:2.7%
-[Information] [17.03.2015 20:29:06] x264 [info]: coded y,uvDC,uvAC intra: 77.7% 85.1% 47.6% inter: 31.6% 30.0% 4.2%
-[Information] [17.03.2015 20:29:06] x264 [info]: i16 v,h,dc,p: 68% 10% 5% 16%
-[Information] [17.03.2015 20:29:06] x264 [info]: i8 v,h,dc,ddl,ddr,vr,hd,vl,hu: 8% 11% 7% 8% 13% 13% 14% 11% 15%
-[Information] [17.03.2015 20:29:06] x264 [info]: i4 v,h,dc,ddl,ddr,vr,hd,vl,hu: 7% 11% 5% 8% 13% 13% 16% 11% 16%
-[Information] [17.03.2015 20:29:06] x264 [info]: i8c dc,h,v,p: 34% 29% 19% 17%
-[Information] [17.03.2015 20:29:06] x264 [info]: Weighted P-Frames: Y:7.5% UV:4.4%
-[Information] [17.03.2015 20:29:06] x264 [info]: ref P L0: 41.3% 11.1% 19.2% 6.2% 5.1% 3.2% 3.3% 1.6% 1.7% 1.3% 1.4% 1.0% 1.1% 0.9% 1.0% 0.7%
-[Information] [17.03.2015 20:29:06] x264 [info]: ref B L0: 79.9% 10.1% 3.0% 1.8% 1.1% 1.0% 0.7% 0.4% 0.4% 0.4% 0.3% 0.3% 0.3% 0.2% 0.1%
-[Information] [17.03.2015 20:29:06] x264 [info]: ref B L1: 95.2% 4.8%
-[Information] [17.03.2015 20:29:06] x264 [info]: kb/s:1687.13
-[Information] [17.03.2015 20:29:06] encoded 142104 frames, 7.21 fps, 1687.13 kb/s



Скачать Варвары.времени.Time.Barbarians.(Джозеф.Джон.Барметтлер).[1990.фантастика.фэнтези.DVDRip-AVC].[AVO]+[Оригинал].torrent без регистрации
Золото ЗОЛОТАЯ РАЗДАЧА! СКАЧАННОЕ НЕ ЗАСЧИТЫВАЕТСЯ! Золото
Дата: Зарегистрирован   [ Тип: внутренний ] Как тут cкачать?
MAGNET ссылка
MAGNET ссылка


Скачать .torrent

15 KB

Статус: проверено DHT
Скачан: торрент - 113 раз, раздача полностью - 49 раз
Размер: 1,45 GB
Оценка:  - (Голосов: 0)
Поблагодарили: 1
Поделиться ссылкой на эту раздачу с друзьями:
В контактеFacebookОдноклассникиTwitterLivejournalМой МирLiveinternet
 

 
Показать сообщения:    


Вы не можете начинать темы
Вы не можете отвечать на сообщения
Вы не можете редактировать свои сообщения
Вы не можете удалять свои сообщения
Вы не можете голосовать в опросах
Вы не можете прикреплять файлы к сообщениям
Вы можете скачивать файлы