Loading...
Error

Скачать Halo: Сумерки / Halo: Nightfall (сезон 01) (Серджо Мимика-Геззан) [2014, фантастика, боевик, триллер, приключения, HDRip] [MVO] торрент без регистрации

 
Статистика раздачи
Размер:  1,46 GB   |    Скачан:  165 раз

Полного источника не было: 26 минут

 
Автор Сообщение

МихаНЕзатор

[] 

Информация о фильме
Название: Halo: Сумерки
Оригинальное название: Halo: Nightfall
Год выхода: 2014
Жанр: фантастика, боевик, триллер, приключения
Режиссер: Серджо Мимика-Геззан

В ролях: Алексис Родни, Александр Бхат, Сара Армстронг, Александра Бхат, Шон Блэйни, Шейнин Бреннан, Кристина Чонг, Майк Колтер, Кристиан Райан Контрерарс

О фильме: Действие начнётся с событий на одной из Внешних колоний человечества, Седре. Отряд Службы военной разведки под командованием капитан-лейтенанта Джеймсона Локка высажен на планету с целью расследовать предполагаемую террористическую деятельность. Отряд подвергается атаке радикалов, и становится известно, что те пытаются использовать некое биологическое оружие, способное влиять только на людей. Ради своего выживания оперативники отряда вынуждены работать вместе с одним из местных командиров Рэндаллом Аикеном. Оставаясь на Седре, отряд обнаруживает инопланетный артефакт. Тем временем на орбиту колонии прибывает частично функциональная секция уничтоженной Установки 04.

Релиз от:

Страна: США
Продолжительность: 01:38:12
Перевод: Профессиональное (многоголосное) Официальное

Файл
Кодек: AVI (XviD)
Качество: HDRip [Исх. BDRip 720p]
Видео: 720x304 (2.37:1), 23.976 fps, XviD build 73 ~1728 kbps avg, 0.33 bit/pixel
Звук: 48 kHz, AC3 Dolby Digital, 2/0 (L,R) ch, ~384.00 kbps avg
Субтитры: нет

АНОНСЫ ПОПУЛЯРНЫХ РАЗДАЧ

Общее
Полное имя : S:ФильмыHalo. Сумерки. 2014. HDRip. 1.45 (AleksSin).avi
Формат : AVI
Формат/Информация : Audio Video Interleave
Размер файла : 1,46 Гбайт
Продолжительность : 1 ч. 38 м.
Общий поток : 2122 Кбит/сек
Программа кодирования : VirtualDubMod 1.5.10.3 | www.virtualdub-fr.org || (build 2550/release)
Библиотека кодирования : VirtualDubMod build 2550/release

Видео
Идентификатор : 0
Формат : MPEG-4 Visual
Профиль формата : Advanced Simple@L5
Параметр BVOP формата : 1
Параметр QPel формата : Нет
Параметр GMC формата : Без точки перехода
Параметр матрицы формата : Выборочная
Идентификатор кодека : XVID
Идентификатор кодека/Подсказка : XviD
Продолжительность : 1 ч. 38 м.
Битрейт : 1728 Кбит/сек
Ширина : 720 пикс.
Высота : 304 пикс.
Соотношение сторон : 2,35:1
Частота кадров : 23,976 кадр/сек
Цветовое пространство : YUV
Подвыборка цветности : 4:2:0
Битовая глубина : 8 бит
Тип развёртки : Прогрессивная
Метод сжатия : С потерями
Бит/(Пиксели*Кадры) : 0.329
Размер потока : 1,19 Гбайт (81%)
Библиотека кодирования : XviD 73

Аудио
Идентификатор : 1
Формат : AC-3
Формат/Информация : Audio Coding 3
Расширение режима : CM (complete main)
Идентификатор кодека : 2000
Продолжительность : 1 ч. 38 м.
Вид битрейта : Постоянный
Битрейт : 384 Кбит/сек
Каналы : 2 канала
Расположение каналов : Front: L R
Частота : 48,0 КГц
Битовая глубина : 16 бит
Метод сжатия : С потерями
Размер потока : 270 Мбайт (18%)
Выравнивание : Разделение по промежуткам
Продолжительность промежутка : 42 мс. (1,00 видеокадр)
Время предзагрузки промежутка : 500 ms



Скачать Halo.Сумерки.Halo.Nightfall.(сезон.01).(Серджо.Мимика-Геззан).[2014.фантастика.боевик.триллер.приключения.HDRip].[MVO].torrent без регистрации
Золото ЗОЛОТАЯ РАЗДАЧА! СКАЧАННОЕ НЕ ЗАСЧИТЫВАЕТСЯ! Золото
Дата: Зарегистрирован   [ Тип: внутренний ] Как тут cкачать?
MAGNET ссылка
MAGNET ссылка


Скачать .torrent

15 KB

Статус: проверено DHT
Скачан: торрент - 165 раз, раздача полностью - 155 раз
Размер: 1,46 GB
Оценка:  5 (Голосов: 1)
Поблагодарили: 6
Поделиться ссылкой на эту раздачу с друзьями:
В контактеFacebookОдноклассникиTwitterLivejournalМой МирLiveinternet
 

 
Показать сообщения:    


Вы не можете начинать темы
Вы не можете отвечать на сообщения
Вы не можете редактировать свои сообщения
Вы не можете удалять свои сообщения
Вы не можете голосовать в опросах
Вы не можете прикреплять файлы к сообщениям
Вы можете скачивать файлы