Loading...
Error

Скачать Двое в Манхэттене / Deux hommes dans Manhattan (Жан-Пьер Мельвиль) [1959, триллер, драма, криминал, BDRip-AVC] [VO]+[Оригинал]+[Sub] торрент без регистрации

 
Статистика раздачи
Размер:  1,64 GB   |    Скачан:  103 раза
Сидов:  1  [  0 KB/s  ]  
 
Автор Сообщение

Marsianka

[] 

Год выпуска: 1959
Страна: Франция
Жанр: триллер, драма, криминал
Продолжительность: 01:24:09
Перевод: Профессиональный одноголосый
Субтитры: русские

Режиссёр: Жан-Пьер Мельвиль

В ролях: Жан-Пьер Мельвиль, Пьер Грассе, Кристиана Эд, Джинджер Холл, Колетт Флёри, Моника Хеннесси, Гленда Ли, Мишель Байли

Описание: В Нью-Йорке исчезает французский дипломат. Журналисту Моро, как знатоку злачных мест ночного Манхеттена, шеф поручает его найти. С собой Моро берёт приятеля, фотографа Дельма. Проститутки, актрисы, певицы - только опыт и цинизм поможет отыскать в этом водовороте след пропавшего человека. Ночь обещает быть долгой, но Манхеттен не спит; огни горят; из каждого кабака доносится джаз...



Качество: BDRip-AVC Сравнение с исходником
Формат: MKV
Видео кодек: H.264
Аудио кодек: AC3
Видео: 2345 Кбит/с, 768x576, 24 кадра/с, 0.221 bpp
Аудио 1: русский, AC3, 192 kbps, 2 ch, 48 kHz [профессиональный одноголосый, Алексей Матвеев (Doctor Joker)]
Аудио 2: франко-английский, AC3, 192 kbps, 2 ch, 48 kHz [оригинал]

Имеются неименованные главы/чаптеры.
frame I:775 Avg QP:19.92 size: 54909
frame P:23175 Avg QP:21.11 size: 25280
frame B:97226 Avg QP:22.66 size: 9108

Общее
Уникальный идентификатор : 243026260889019497029705659301784970831 (0xB6D527C284AB0F43975D7726354BE64F)
Полное имя : D:VideoDvoe v Manhettene.1959.BDRip.AVC.mkv
Формат : Matroska
Версия формата : Version 4 / Version 2
Размер файла : 1,64 Гбайт
Продолжительность : 1 ч. 24 м.
Общий поток : 2784 Кбит/сек
Дата кодирования : UTC 2015-03-18 03:15:46
Программа кодирования : mkvmerge v7.7.0 ('Six Voices') 64bit built on Feb 28 2015 23:39:33
Библиотека кодирования : libebml v1.3.1 + libmatroska v1.4.2
_STATISTICS_WRITING_APP : mkvmerge v7.7.0 ('Six Voices') 64bit built on Feb 28 2015 23:39:33
_STATISTICS_WRITING_DATE_UTC : 2015-03-18 03:15:46
_STATISTICS_TAGS : BPS DURATION NUMBER_OF_FRAMES NUMBER_OF_BYTES
DURATION : 01:23:39.458000000
NUMBER_OF_FRAMES : 609
NUMBER_OF_BYTES : 33205

Видео
Идентификатор : 1
Формат : AVC
Формат/Информация : Advanced Video Codec
Профиль формата : High@L4.1
Параметр CABAC формата : Да
Параметр ReFrames формата : 9 кадров
Идентификатор кодека : V_MPEG4/ISO/AVC
Продолжительность : 1 ч. 24 м.
Битрейт : 2345 Кбит/сек
Ширина : 768 пикселей
Высота : 576 пикселей
Соотношение сторон : 4:3
Режим частоты кадров : Постоянный
Частота кадров : 24,000 кадра/сек
Цветовое пространство : YUV
Субдискретизация насыщенности : 4:2:0
Битовая глубина : 8 бит
Тип развёртки : Прогрессивная
Бит/(Пиксели*Кадры) : 0.221
Размер потока : 1,38 Гбайт (84%)
Заголовок : BDRip -- STarankov
Библиотека кодирования : x264 core 142 r2431 ac76440
Настройки программы : cabac=1 / ref=9 / deblock=1:-2:-2 / analyse=0x3:0x113 / me=umh / subme=10 / psy=1 / psy_rd=1.00:0.15 / mixed_ref=1 / me_range=32 / chroma_me=1 / trellis=2 / 8x8dct=1 / cqm=0 / deadzone=21,11 / fast_pskip=1 / chroma_qp_offset=-3 / threads=6 / lookahead_threads=1 / sliced_threads=0 / nr=0 / decimate=1 / interlaced=0 / bluray_compat=0 / constrained_intra=0 / bframes=8 / b_pyramid=2 / b_adapt=2 / b_bias=0 / direct=3 / weightb=1 / open_gop=0 / weightp=2 / keyint=230 / keyint_min=23 / scenecut=40 / intra_refresh=0 / rc_lookahead=40 / rc=crf / mbtree=0 / crf=20.0 / qcomp=0.60 / qpmin=0 / qpmax=69 / qpstep=4 / vbv_maxrate=40000 / vbv_bufsize=50000 / crf_max=0.0 / nal_hrd=none / filler=0 / ip_ratio=1.40 / pb_ratio=1.30 / aq=1:1.00
Язык : English
Default : Да
Forced : Нет
DURATION : 01:24:09.000000000
NUMBER_OF_FRAMES : 121176
NUMBER_OF_BYTES : 1513923165
_STATISTICS_WRITING_APP : mkvmerge v7.7.0 ('Six Voices') 64bit built on Feb 28 2015 23:39:33
_STATISTICS_WRITING_DATE_UTC : 2015-03-18 03:15:46
_STATISTICS_TAGS : BPS DURATION NUMBER_OF_FRAMES NUMBER_OF_BYTES

Аудио #1
Идентификатор : 2
Формат : AC-3
Формат/Информация : Audio Coding 3
Расширение режима : CM (complete main)
Параметр Endianness формата : Big
Идентификатор кодека : A_AC3
Продолжительность : 1 ч. 24 м.
Вид битрейта : Постоянный
Битрейт : 192 Кбит/сек
Каналы : 2 канала
Расположение каналов : Front: L R
Частота : 48,0 КГц
Битовая глубина : 16 бит
Метод сжатия : С потерями
Размер потока : 116 Мбайт (7%)
Заголовок : VO (Алексей Матвеев (Doctor Joker))
Язык : Russian
Default : Да
Forced : Нет

Аудио #2
Идентификатор : 3
Формат : AC-3
Формат/Информация : Audio Coding 3
Расширение режима : CM (complete main)
Параметр Endianness формата : Big
Идентификатор кодека : A_AC3
Продолжительность : 1 ч. 24 м.
Вид битрейта : Постоянный
Битрейт : 192 Кбит/сек
Каналы : 2 канала
Расположение каналов : Front: L R
Частота : 48,0 КГц
Битовая глубина : 16 бит
Метод сжатия : С потерями
Размер потока : 116 Мбайт (7%)
Заголовок : Original
Язык : English
Default : Нет
Forced : Нет

Текст
Идентификатор : 4
Формат : UTF-8
Идентификатор кодека : S_TEXT/UTF8
Идентификатор кодека/Информация : UTF-8 Plain Text
Заголовок : русские
Язык : Russian
Default : Нет
Forced : Нет

Меню
00:00:00.000 : :Chapter 01
00:09:08.000 : :Chapter 02
00:15:56.165 : :Chapter 03
00:22:57.500 : :Chapter 04
00:31:16.500 : :Chapter 05
00:37:19.791 : :Chapter 06
00:44:51.875 : :Chapter 07
00:53:07.750 : :Chapter 08
00:58:42.500 : :Chapter 09
01:07:32.833 : :Chapter 10
01:15:57.541 : :Chapter 11
01:21:39.916 : :Chapter 12
01:24:08.750 : :Chapter 13



Скачать Двое.в.Манхэттене.Deux.hommes.dans.Manhattan.(Жан-Пьер.Мельвиль).[1959.триллер.драма.криминал.BDRip-AVC].[VO]+[Оригинал]+[Sub].torrent без регистрации
Золото ЗОЛОТАЯ РАЗДАЧА! СКАЧАННОЕ НЕ ЗАСЧИТЫВАЕТСЯ! Золото
Дата: Зарегистрирован   [ Тип: внутренний ] Как тут cкачать?
MAGNET ссылка
MAGNET ссылка


Скачать .torrent

17 KB

Статус: проверено DHT
Скачан: торрент - 103 раз, раздача полностью - 0 раз
Размер: 1,64 GB
Оценка:  - (Голосов: 0)
Поблагодарили: 1
Поделиться ссылкой на эту раздачу с друзьями:
В контактеFacebookОдноклассникиTwitterLivejournalМой МирLiveinternet
 

 
Показать сообщения:    


Вы не можете начинать темы
Вы не можете отвечать на сообщения
Вы не можете редактировать свои сообщения
Вы не можете удалять свои сообщения
Вы не можете голосовать в опросах
Вы не можете прикреплять файлы к сообщениям
Вы можете скачивать файлы