Loading...
Error

Скачать Видение / Dreamscape (Джозеф Рубин) [1984, ужасы, фантастика, триллер, приключения, BDRip-AVC] [AVO]x2+[Оригинал] торрент без регистрации

 
Статистика раздачи
Размер:  3,22 GB   |    Скачан:  108 раз
Сидов:  1  [  0 KB/s  ]  
 
Автор Сообщение

Marsianka

[] 

Год выпуска: 1984
Страна: США
Жанр: ужасы, фантастика, триллер, приключения
Продолжительность: 01:38:58
Перевод: авторский
Субтитры: нет

Режиссёр: Джозеф Рубин

В ролях: Дэннис Куэйд, Макс фон Сюдов, Кристофер Пламмер, Эдди Альберт, Кейт Кэпшоу, Дэвид Патрик Келли, Джордж Уэндт, Ларри Гельман, Редмонд Глисон

Описание: Алекс Гарднер обнаруживает, что физически может проникать в сны других людей, и принимает участие в запутанной политической интриге...



Качество: BDRip-AVC Сравнение с исходником
Формат: MKV
Видео кодек: H.264
Аудио кодек: AC3
Видео: 3227 Кбит/с, 1024x554, 23.976 кадра/с, 0.237 bpp
Аудио 1: русский, AC3, 448 kbps, 6 ch, 48 kHz [авторский, Сергей Визгунов]
Аудио 2: русский, AC3, 448 kbps, 6 ch, 48 kHz [авторский, Григорий Либергал]
Аудио 3: английский, AC3, 448 kbps, 6 ch, 48 kHz [оригинал]
Имеются неименованные главы/чаптеры.
Сатурн, 1985 год
Номинации (1):
Лучший фильм ужасов
frame I:966 Avg QP:19.22 size: 71511
frame P:27885 Avg QP:20.48 size: 36195
frame B:113541 Avg QP:22.37 size: 12193

Общее
Уникальный идентификатор : 234721506976618065655386706216593816929 (0xB095B7C77EA0B0C39A791ACFC9FE7D61)
Полное имя : D:VideoVidenie.1984.BDRip.AVC.mkv
Формат : Matroska
Версия формата : Version 4 / Version 2
Размер файла : 3,22 Гбайт
Продолжительность : 1 ч. 38 м.
Общий поток : 4664 Кбит/сек
Дата кодирования : UTC 2015-03-19 03:59:02
Программа кодирования : mkvmerge v7.7.0 ('Six Voices') 64bit built on Feb 28 2015 23:39:33
Библиотека кодирования : libebml v1.3.1 + libmatroska v1.4.2
DURATION : 01:38:58.912000000
NUMBER_OF_FRAMES : 185591
NUMBER_OF_BYTES : 332579072
_STATISTICS_WRITING_APP : mkvmerge v7.7.0 ('Six Voices') 64bit built on Feb 28 2015 23:39:33
_STATISTICS_WRITING_DATE_UTC : 2015-03-19 03:59:02
_STATISTICS_TAGS : BPS DURATION NUMBER_OF_FRAMES NUMBER_OF_BYTES

Видео
Идентификатор : 1
Формат : AVC
Формат/Информация : Advanced Video Codec
Профиль формата : High@L4.1
Параметр CABAC формата : Да
Параметр ReFrames формата : 9 кадров
Идентификатор кодека : V_MPEG4/ISO/AVC
Продолжительность : 1 ч. 38 м.
Битрейт : 3227 Кбит/сек
Ширина : 1024 пикселя
Высота : 554 пикселя
Соотношение сторон : 1,85:1
Режим частоты кадров : Постоянный
Частота кадров : 23,976 кадра/сек
Цветовое пространство : YUV
Субдискретизация насыщенности : 4:2:0
Битовая глубина : 8 бит
Тип развёртки : Прогрессивная
Бит/(Пиксели*Кадры) : 0.237
Размер потока : 2,23 Гбайт (69%)
Заголовок : BDRip -- STarankov
Библиотека кодирования : x264 core 142 r2431 ac76440
Настройки программы : cabac=1 / ref=9 / deblock=1:-2:-2 / analyse=0x3:0x113 / me=umh / subme=10 / psy=1 / psy_rd=1.00:0.15 / mixed_ref=1 / me_range=32 / chroma_me=1 / trellis=2 / 8x8dct=1 / cqm=0 / deadzone=21,11 / fast_pskip=1 / chroma_qp_offset=-3 / threads=6 / lookahead_threads=1 / sliced_threads=0 / nr=0 / decimate=1 / interlaced=0 / bluray_compat=0 / constrained_intra=0 / bframes=8 / b_pyramid=2 / b_adapt=2 / b_bias=0 / direct=3 / weightb=1 / open_gop=0 / weightp=2 / keyint=230 / keyint_min=23 / scenecut=40 / intra_refresh=0 / rc_lookahead=40 / rc=crf / mbtree=0 / crf=20.0 / qcomp=0.60 / qpmin=0 / qpmax=69 / qpstep=4 / vbv_maxrate=40000 / vbv_bufsize=50000 / crf_max=0.0 / nal_hrd=none / filler=0 / ip_ratio=1.40 / pb_ratio=1.30 / aq=1:1.00
Язык : English
Default : Да
Forced : Нет
DURATION : 01:38:58.933000000
NUMBER_OF_FRAMES : 142392
NUMBER_OF_BYTES : 2462797995
_STATISTICS_WRITING_APP : mkvmerge v7.7.0 ('Six Voices') 64bit built on Feb 28 2015 23:39:33
_STATISTICS_WRITING_DATE_UTC : 2015-03-19 03:59:02
_STATISTICS_TAGS : BPS DURATION NUMBER_OF_FRAMES NUMBER_OF_BYTES

Аудио #1
Идентификатор : 2
Формат : AC-3
Формат/Информация : Audio Coding 3
Расширение режима : CM (complete main)
Параметр Endianness формата : Big
Идентификатор кодека : A_AC3
Продолжительность : 1 ч. 38 м.
Вид битрейта : Постоянный
Битрейт : 448 Кбит/сек
Каналы : 6 каналов
Расположение каналов : Front: L C R, Side: L R, LFE
Частота : 48,0 КГц
Битовая глубина : 16 бит
Метод сжатия : С потерями
Размер потока : 317 Мбайт (10%)
Заголовок : AVO (Сергей Визгунов)
Язык : Russian
Default : Да
Forced : Нет

Аудио #2
Идентификатор : 3
Формат : AC-3
Формат/Информация : Audio Coding 3
Расширение режима : CM (complete main)
Параметр Endianness формата : Big
Идентификатор кодека : A_AC3
Продолжительность : 1 ч. 38 м.
Вид битрейта : Постоянный
Битрейт : 448 Кбит/сек
Каналы : 6 каналов
Расположение каналов : Front: L C R, Side: L R, LFE
Частота : 48,0 КГц
Битовая глубина : 16 бит
Метод сжатия : С потерями
Размер потока : 317 Мбайт (10%)
Заголовок : AVO (Григорий Либергал)
Язык : Russian
Default : Нет
Forced : Нет

Аудио #3
Идентификатор : 4
Формат : AC-3
Формат/Информация : Audio Coding 3
Расширение режима : CM (complete main)
Параметр Endianness формата : Big
Идентификатор кодека : A_AC3
Продолжительность : 1 ч. 38 м.
Вид битрейта : Постоянный
Битрейт : 448 Кбит/сек
Каналы : 6 каналов
Расположение каналов : Front: L C R, Side: L R, LFE
Частота : 48,0 КГц
Битовая глубина : 16 бит
Метод сжатия : С потерями
Размер потока : 317 Мбайт (10%)
Заголовок : Original
Язык : English
Default : Нет
Forced : Нет

Меню
00:00:00.000 : :Chapter 01
00:02:50.044 : :Chapter 02
00:07:37.623 : :Chapter 03
00:15:41.899 : :Chapter 04
00:20:22.721 : :Chapter 05
00:26:07.065 : :Chapter 06
00:32:04.005 : :Chapter 07
00:38:01.570 : :Chapter 08
00:44:22.993 : :Chapter 09
00:49:18.997 : :Chapter 10
00:58:37.597 : :Chapter 11
01:02:44.385 : :Chapter 12
01:11:13.143 : :Chapter 13
01:14:49.318 : :Chapter 14
01:20:52.264 : :Chapter 15
01:33:17.842 : :Chapter 16



Скачать Видение.Dreamscape.(Джозеф.Рубин).[1984.ужасы.фантастика.триллер.приключения.BDRip-AVC].[AVO]x2+[Оригинал].torrent без регистрации
Золото ЗОЛОТАЯ РАЗДАЧА! СКАЧАННОЕ НЕ ЗАСЧИТЫВАЕТСЯ! Золото
Дата: Зарегистрирован   [ Тип: внутренний ] Как тут cкачать?
MAGNET ссылка
MAGNET ссылка


Скачать .torrent

17 KB

Статус: проверено DHT
Скачан: торрент - 108 раз, раздача полностью - 16 раз
Размер: 3,22 GB
Оценка:  - (Голосов: 0)
Поблагодарили: 2
Поделиться ссылкой на эту раздачу с друзьями:
В контактеFacebookОдноклассникиTwitterLivejournalМой МирLiveinternet
 

 
Показать сообщения:    


Вы не можете начинать темы
Вы не можете отвечать на сообщения
Вы не можете редактировать свои сообщения
Вы не можете удалять свои сообщения
Вы не можете голосовать в опросах
Вы не можете прикреплять файлы к сообщениям
Вы можете скачивать файлы