Loading...
Error

Скачать Мороженщик / Ice Cream Man (Пол Норман) [1995 г., ужасы, комедия, DVDRip] [AVO (Сербин)] торрент без регистрации

 
Статистика раздачи
Размер:  1,37 GB   |    Скачан:  121 раз
Сидов:  1  [  0 KB/s  ]  
 
Автор Сообщение

durik

[] 

Мороженщик / Ice Cream Man

Информация о фильме
Название: Мороженщик
Оригинальное название: Ice Cream Man
Год выхода: 1995
Жанр: ужасы, комедия
Режиссер: Пол Норман
В ролях: Клинт Ховард, Джастин Исфельд, Энди МакЭфи, Дэвид Уорнер, Мики ЛеБо, Сэндал Бергман, Андреа Эванс

О фильме:
Пронзительный крик первой жертвы возвестил о прибытии Мороженщика. Сливочное лакомство теперь содержит новые ингредиенты.
Размеренная и спокойная жизнь небольшого провинциального городка уходит в прошлое, уступая место холодному террору беспощадного маньяка. Кто же прячется под скромной маской продавца мороженого? И кто станет его новой жертвой?..



Страна: США
Студия: Doublesteen Productions, David M. Goldstein Productions
Продолжительность: 01:29:27
Перевод: Авторский (одноголосый закадровый) [Ю.Сербин]

Файл
Кодек: XviD
Качество: DVDRip
Видео: 720x544 (4x3), 2006 kbps, 23,976 fps, 0,205 Bits/(Pixel*Frame)
Звук: AC3, 48 kHz, 2 ch, 192 kbps
Субтитры: Нет
General
Complete name : I:Ice.Cream.Man.1995.DVDRip_by_Bathory.avi
Format : AVI
Format/Info : Audio Video Interleave
File size : 1.37 GiB
Duration : 1h 29mn
Overall bit rate : 2 193 Kbps
Writing application : VirtualDubMod 1.5.10.3 | www.virtualdub-fr.org || (build 2550/release)
Writing library : VirtualDubMod build 2550/release

Video
ID : 0
Format : MPEG-4 Visual
Format profile : Advanced Simple@L5
Format settings, BVOP : 1
Format settings, QPel : No
Format settings, GMC : No warppoints
Format settings, Matrix : Custom
Codec ID : XVID
Codec ID/Hint : XviD
Duration : 1h 29mn
Bit rate : 2 006 Kbps
Width : 720 pixels
Height : 544 pixels
Display aspect ratio : 4:3
Frame rate : 25.000 fps
Color space : YUV
Chroma subsampling : 4:2:0
Bit depth : 8 bits
Scan type : Progressive
Compression mode : Lossy
Bits/(Pixel*Frame) : 0.205
Stream size : 1.25 GiB (91%)
Writing library : XviD 73

Audio
ID : 1
Format : AC-3
Format/Info : Audio Coding 3
Mode extension : CM (complete main)
Format settings, Endianness : Big
Codec ID : 2000
Duration : 1h 22mn
Bit rate mode : Constant
Bit rate : 192 Kbps
Channel(s) : 2 channels
Channel positions : Front: L R
Sampling rate : 48.0 KHz
Bit depth : 16 bits
Compression mode : Lossy
Stream size : 114 MiB (8%)
Alignment : Split accross interleaves
Interleave, duration : 43 ms (1.08 video frame)
Interleave, preload duration : 500 ms
Релиз от:

Автор рипа: Bathory



Скачать Мороженщик.Ice.Cream.Man.(Пол.Норман).[1995.г.ужасы.комедия.DVDRip].[AVO.(Сербин)].torrent без регистрации
Золото ЗОЛОТАЯ РАЗДАЧА! СКАЧАННОЕ НЕ ЗАСЧИТЫВАЕТСЯ! Золото
Дата: Зарегистрирован   [ Тип: внутренний ] Как тут cкачать?
MAGNET ссылка
MAGNET ссылка


Скачать .torrent

14 KB

Статус: проверено DHT
Скачан: торрент - 121 раз, раздача полностью - 4 раз
Размер: 1,37 GB
Оценка:  - (Голосов: 0)
Поблагодарили: 1
Поделиться ссылкой на эту раздачу с друзьями:
В контактеFacebookОдноклассникиTwitterLivejournalМой МирLiveinternet
 

 
Показать сообщения:    


Вы не можете начинать темы
Вы не можете отвечать на сообщения
Вы не можете редактировать свои сообщения
Вы не можете удалять свои сообщения
Вы не можете голосовать в опросах
Вы не можете прикреплять файлы к сообщениям
Вы можете скачивать файлы