Loading...
Error

Скачать Младенец на прогулке, или Ползком от гангстеров / Baby's Day Out (Патрик Рид Джонсон) [1994, драма, комедия, криминал, приключения, семейный, WEB-DLRip-AVC] [MVO] торрент без регистрации

 
Статистика раздачи
Размер:  1,96 GB   |    Скачан:  120 раз
Сидов:  1  [  0 KB/s  ]  
 
Автор Сообщение

Marsianka

[] 



Информация о фильме
Название: Младенец на прогулке, или Ползком от гангстеров=
Оригинальное название: Baby's Day Out
Год выхода: 1994
Жанр: драма, комедия, криминал, приключения, семейный
Режиссер: Патрик Рид Джонсон
В ролях: Джо Мантенья, Лара Флинн Бойл, Джо Пантольяно, Брайан Хейли, Синтия Никсон, Фред Долтон Томпсон, Джон Невилл, Мэттью Глэйв, Адам Роберт Уортон, Джейкоб Джозеф Уортон

О фильме:
Малыш Бинк путешествует по городу весь день: необычные места, потрясающие виды, но он гуляет совершенно один! Отчаянно разыскиваемый собственными родителями, ставший знаменитым, благодаря прессе, малыш противостоит группе гангстеров, охотящихся за ним ради денег, предложенных его богатыми родителями. Невозмутимый, собранный и абсолютно не сознающий всех разрушений, которые он производит, малыш создаст столько неприятностей бандитам, что никаких денег им не захочется!



Страна: США
Продолжительность: 01:38:50
Перевод: Профессиональный (многоголосый, закадровый) R5

Файл
Формат: MKV
Видео кодек: H.264
Аудио кодек: AC3
Видео: 1024x552, 23.976 fps, H264 ~ 2397 Kbps
Аудио: 48 kHz, AC3 Dolby Digital, 3/2 (L,C,R,l,r) + LFE ch, ~384 kbps

General
Unique ID : 233928120472650774440186159069355608443 (0xAFFCEACDF699B8AEB3A0DAFB4648897B)
Complete name : F:Baby's.Day.Out.(1994).WEB-DLRIP_AVC.[-=DoMiNo=-].mkv
Format : Matroska
Format version : Version 4 / Version 2
File size : 1.96 GiB
Duration : 1h 38mn
Overall bit rate : 2 837 Kbps
Movie name : Baby's.Day.Out.(1994).WEB-DLRIP_AVC.[-=DoMiNo=-]
Encoded date : UTC 2015-03-20 03:37:38
Writing application : mkvmerge v7.7.0 ('Six Voices') 64bit built on Feb 28 2015 23:39:33
Writing library : libebml v1.3.1 + libmatroska v1.4.2

Video
ID : 1
Format : AVC
Format/Info : Advanced Video Codec
Format profile : High@L4.1
Format settings, CABAC : Yes
Format settings, ReFrames : 12 frames
Codec ID : V_MPEG4/ISO/AVC
Duration : 1h 38mn
Bit rate : 2 397 Kbps
Width : 1 024 pixels
Height : 552 pixels
Display aspect ratio : 1.85:1
Frame rate mode : Constant
Frame rate : 23.976 fps
Color space : YUV
Chroma subsampling : 4:2:0
Bit depth : 8 bits
Scan type : Progressive
Bits/(Pixel*Frame) : 0.177
Stream size : 1.65 GiB (84%)
Title : Baby's.Day.Out.(1994)
Writing library : x264 core 146 r2538M 121396c
Encoding settings : cabac=1 / ref=12 / deblock=1:-3:-3 / analyse=0x3:0x133 / me=umh / subme=10 / psy=1 / psy_rd=1,00:0,10 / mixed_ref=1 / me_range=32 / chroma_me=1 / trellis=2 / 8x8dct=1 / cqm=0 / deadzone=21,11 / fast_pskip=1 / chroma_qp_offset=-3 / threads=12 / lookahead_threads=3 / sliced_threads=0 / nr=0 / decimate=1 / interlaced=0 / bluray_compat=0 / constrained_intra=0 / bframes=11 / b_pyramid=2 / b_adapt=2 / b_bias=0 / direct=1 / weightb=1 / open_gop=0 / weightp=2 / keyint=230 / keyint_min=23 / scenecut=40 / intra_refresh=0 / rc=crf / mbtree=0 / crf=18,0 / qcomp=0,60 / qpmin=18 / qpmax=69 / qpstep=4 / ip_ratio=1,40 / pb_ratio=1,30 / aq=1:1,00
Language : English
Default : Yes
Forced : No
Color primaries : BT.709
Transfer characteristics : BT.709
Matrix coefficients : BT.709
Color range : Limited
DURATION : 01:38:49.507000000
NUMBER_OF_FRAMES : 142166
NUMBER_OF_BYTES : 1817120299
_STATISTICS_WRITING_APP : mkvmerge v7.7.0 ('Six Voices') 64bit built on Feb 28 2015 23:39:33
_STATISTICS_WRITING_DATE_UT : 2015-03-20 03:37:38
_STATISTICS_TAGS : BPS DURATION NUMBER_OF_FRAMES NUMBER_OF_BYTES

Audio
ID : 2
Format : AC-3
Format/Info : Audio Coding 3
Mode extension : CM (complete main)
Format settings, Endianness : Big
Codec ID : A_AC3
Duration : 1h 38mn
Bit rate mode : Constant
Bit rate : 384 Kbps
Channel(s) : 6 channels
Channel positions : Front: L C R, Side: L R, LFE
Sampling rate : 48.0 KHz
Bit depth : 16 bits
Compression mode : Lossy
Stream size : 271 MiB (14%)
Title : AC3 5.1 384Kbps (Профессиональный, многоголосый - R5)
Language : Russian
Default : Yes
Forced : No
DURATION : 01:38:49.248000000
NUMBER_OF_FRAMES : 185289
NUMBER_OF_BYTES : 284603904
_STATISTICS_WRITING_APP : mkvmerge v7.7.0 ('Six Voices') 64bit built on Feb 28 2015 23:39:33
_STATISTICS_WRITING_DATE_UT : 2015-03-20 03:37:38
_STATISTICS_TAGS : BPS DURATION NUMBER_OF_FRAMES NUMBER_OF_BYTES

Menu
00:00:00.000 : :Main Titles
00:02:47.000 : :Baby Bink
00:04:45.000 : :The Photographer
00:07:33.000 : :The Impostors
00:10:44.000 : :A Photo Sitting
00:13:28.000 : :Abduction
00:17:47.000 : :Naptime
00:22:36.000 : :Out the Window
00:27:35.000 : :Down the Elevator
00:28:57.000 : :On the Bus
00:34:21.000 : :Hitching a Ride
00:42:17.000 : :At the Zoo
00:54:18.000 : :In the Park
01:05:01.000 : :On the Job
01:17:35.000 : :Stuck
01:23:31.000 : :Police Report
01:25:42.000 : :Reunited
01:29:48.000 : :Hearing Babies
01:32:53.000 : :Back Home
01:33:47.000 : :End Titles







Скачать Младенец.на.прогулке.или.Ползком.от.гангстеров.Baby's.Day.Out.(Патрик.Рид.Джонсон).[1994.драма.комедия.криминал.приключения.семейный.WEB-DLRip-AVC].[MVO].torrent без регистрации
Золото ЗОЛОТАЯ РАЗДАЧА! СКАЧАННОЕ НЕ ЗАСЧИТЫВАЕТСЯ! Золото
Дата: Зарегистрирован   [ Тип: внутренний ] Как тут cкачать?
MAGNET ссылка
MAGNET ссылка


Скачать .torrent

20 KB

Статус: проверено DHT
Скачан: торрент - 120 раз, раздача полностью - 37 раз
Размер: 1,96 GB
Оценка:  5 (Голосов: 1)
Поблагодарили: 2
Поделиться ссылкой на эту раздачу с друзьями:
В контактеFacebookОдноклассникиTwitterLivejournalМой МирLiveinternet
 

 
Показать сообщения:    


Вы не можете начинать темы
Вы не можете отвечать на сообщения
Вы не можете редактировать свои сообщения
Вы не можете удалять свои сообщения
Вы не можете голосовать в опросах
Вы не можете прикреплять файлы к сообщениям
Вы можете скачивать файлы