Loading...
Error

/ Powers ( 01) ( .) [2015 , , , , WEBRip] MVO (Jaskier) + Original

 
2,82 GB   |    :  213
1  [  0 KB/s  ]  
 

[] 

/ Powers

: Powers
:
: 2015
:
: , , ,
: ~45
: ( ) Jaskier
:
: Playstation
: , ,

: , , , , , .

: , . , .
:
: , , , , ,



: WEBRip
: MKV
: H.264
: AC3
: MPEG4 Video (H264) 720x400 23.976fps, ~1000 kbps, 0.122 bit/pixel
1 ( ): Dolby AC3, 48 kHz, stereo 192Kbps
2 (): Dolby AC3, 48 kHz, stereo 192Kbps




, 10- !

:

General
Unique ID : 203429172022116462399829650047329781453 (0x990B088CA2B988EFB3E44B2A149646CD)
Complete name : V:\Powers. Season 1 (WEB-DLRip l Jaskier)\Powers.s01e04.Jaskier.mkv
Format : Matroska
Format version : Version 1
File size : 437 MiB
Duration : 42mn 22s
Overall bit rate : 1 442 Kbps
Encoded date : UTC 2015-03-20 12:33:23
Writing application : mkvmerge v2.3.0 ('Freak U') built on Sep 8 2008 18:32:16
Writing library : libebml v0.7.7 + libmatroska v0.8.1
Video
ID : 1
Format : AVC
Format/Info : Advanced Video Codec
Format profile : High@L3.1
Format settings, CABAC : Yes
Format settings, ReFrames : 8 frames
Codec ID : V_MPEG4/ISO/AVC
Duration : 42mn 22s
Bit rate : 1 054 Kbps
Width : 720 pixels
Height : 400 pixels
Display aspect ratio : 16:9
Frame rate mode : Constant
Frame rate : 29.970 fps
Color space : YUV
Chroma subsampling : 4:2:0
Bit depth : 8 bits
Scan type : Progressive
Bits/(Pixel*Frame) : 0.122
Stream size : 312 MiB (71%)
Writing library : x264 core 79 r1342kMod e8501ef
Encoding settings : cabac=1 / ref=8 / deblock=1:-1:-1 / analyse=0x3:0x133 / me=umh / subme=7 / psy=1 / psy_rd=1.0:0.1 / mixed_ref=1 / me_range=16 / chroma_me=1 / trellis=2 / 8x8dct=1 / cqm=0 / deadzone=21,11 / chroma_qp_offset=-3 / threads=6 / nr=0 / decimate=1 / mbaff=0 / constrained_intra=0 / bframes=3 / b_pyramid=0 / b_adapt=2 / b_bias=0 / direct=3 / wpredb=1 / wpredp=2 / keyint=250 / keyint_min=25 / scenecut=40 / rc_lookahead=50 / rc=2pass / mbtree=1 / bitrate=1054 / ratetol=1.0 / qcomp=0.60 / qpmin=10 / qpmax=51 / qpstep=4 / cplxblur=20.0 / qblur=0.5 / ip_ratio=1.40 / aq=1:1.00
Default : Yes
Forced : No
Audio #1
ID : 2
Format : AC-3
Format/Info : Audio Coding 3
Mode extension : CM (complete main)
Format settings, Endianness : Big
Codec ID : A_AC3
Duration : 42mn 22s
Bit rate mode : Constant
Bit rate : 192 Kbps
Channel(s) : 2 channels
Channel positions : Front: L R
Sampling rate : 48.0 KHz
Bit depth : 16 bits
Compression mode : Lossy
Stream size : 58.2 MiB (13%)
Title : Jaskier Studio
Language : Russian
Default : Yes
Forced : No
Audio #2
ID : 3
Format : AC-3
Format/Info : Audio Coding 3
Mode extension : CM (complete main)
Format settings, Endianness : Big
Codec ID : A_AC3
Duration : 42mn 22s
Bit rate mode : Constant
Bit rate : 192 Kbps
Channel(s) : 2 channels
Channel positions : Front: L R
Sampling rate : 48.0 KHz
Bit depth : 16 bits
Compression mode : Lossy
Stream size : 58.2 MiB (13%)
Title : Original
Language : English
Default : No
Forced : No
! ; . , :
.
( ).
, .
() ( - ), . , !
E , , . , , .



.Powers.(.01).(....).[2015.....WEBRip].MVO.(Jaskier).+.Original.torrent
  ! ! 
:   [ : ] c?
MAGNET
MAGNET


.torrent

16 KB

: DHT
: - 213 , - 14
: 2,82 GB
- (: 0)
: 1
:
 FacebookTwitterLivejournal Liveinternet
 

 
: