Loading...
Error

/ Powers ( 01) ( .) [2015 , , , ., WEB-DLRip] [720p] MVO (Jaskier) + Original

 
11,89 GB   |    :  315
1  [  26 KB/s  ]  
 

[] 

/ Powers

: Powers
:
: 2015
:
: , , ,
: ~50
: ( ) Jaskier
:
: Playstation
: , ,

: , , , , , .

: , . , .
:
: , , , , ,



: WEB-DL 720p
: MKV
: H.264
: AC3
: MPEG4 Video (H264) 1280x720 23.976fps, 2735 kbps, 0.124 bit/pixel
1 ( ): Dolby AC3, 48 kHz, 6 ch, 384 kbps
2 (): Dolby AC3, 48 kHz, 6 ch, 640 kbps




, 10- !

:

General
Unique ID : 173807875482427907000045885705661714754 (0x82C22DDFCD3F139CBFF89DE13E1C1142)
Complete name : X:\HD\Powers (WEB-DL l 720p l Jaskier)\Powers.2015.S01E01.Pilot.720p.PSN.WEBRip.DD5.1.x264-Jaskier.mkv
Format : Matroska
Format version : Version 1
File size : 1.36 GiB
Duration : 50mn 48s
Overall bit rate : 3 836 Kbps
Encoded date : UTC 2015-03-17 15:22:13
Writing application : mkvmerge v2.3.0 ('Freak U') built on Sep 8 2008 18:32:16
Writing library : libebml v0.7.7 + libmatroska v0.8.1
Video
ID : 1
Format : AVC
Format/Info : Advanced Video Codec
Format profile : High@L4.1
Format settings, CABAC : Yes
Format settings, ReFrames : 9 frames
Codec ID : V_MPEG4/ISO/AVC
Duration : 50mn 48s
Bit rate : 2 735 Kbps
Width : 1 280 pixels
Height : 720 pixels
Display aspect ratio : 16:9
Frame rate mode : Constant
Frame rate : 23.976 fps
Color space : YUV
Chroma subsampling : 4:2:0
Bit depth : 8 bits
Scan type : Progressive
Bits/(Pixel*Frame) : 0.124
Stream size : 994 MiB (71%)
Writing library : x264 core 144 r2525 40bb568
Encoding settings : cabac=1 / ref=9 / deblock=1:-3:-3 / analyse=0x3:0x133 / me=umh / subme=10 / psy=1 / psy_rd=1.00:0.00 / mixed_ref=1 / me_range=48 / chroma_me=1 / trellis=2 / 8x8dct=1 / cqm=0 / deadzone=21,11 / fast_pskip=0 / chroma_qp_offset=-2 / threads=12 / lookahead_threads=2 / sliced_threads=0 / nr=0 / decimate=0 / interlaced=0 / bluray_compat=0 / constrained_intra=0 / bframes=8 / b_pyramid=2 / b_adapt=2 / b_bias=0 / direct=3 / weightb=1 / open_gop=0 / weightp=2 / keyint=250 / keyint_min=24 / scenecut=40 / intra_refresh=0 / rc_lookahead=150 / rc=crf / mbtree=0 / crf=17.0 / qcomp=0.75 / qpmin=0 / qpmax=69 / qpstep=4 / vbv_maxrate=38000 / vbv_bufsize=30000 / crf_max=0.0 / nal_hrd=none / filler=0 / ip_ratio=1.40 / pb_ratio=1.30 / aq=1:0.70
Language : English
Default : Yes
Forced : No
Audio #1
ID : 2
Format : AC-3
Format/Info : Audio Coding 3
Mode extension : CM (complete main)
Format settings, Endianness : Big
Codec ID : A_AC3
Duration : 50mn 48s
Bit rate mode : Constant
Bit rate : 384 Kbps
Channel(s) : 6 channels
Channel positions : Front: L C R, Side: L R, LFE
Sampling rate : 48.0 KHz
Bit depth : 16 bits
Compression mode : Lossy
Stream size : 140 MiB (10%)
Title : Jaskier Studio
Language : Russian
Default : Yes
Forced : No
Audio #2
ID : 3
Format : AC-3
Format/Info : Audio Coding 3
Mode extension : CM (complete main)
Format settings, Endianness : Big
Codec ID : A_AC3
Duration : 50mn 48s
Bit rate mode : Constant
Bit rate : 640 Kbps
Channel(s) : 6 channels
Channel positions : Front: L C R, Side: L R, LFE
Sampling rate : 48.0 KHz
Bit depth : 16 bits
Compression mode : Lossy
Stream size : 233 MiB (17%)
Title : Original
Language : English
Default : No
Forced : No
! ; . , :
.
( ).
, .
() ( - ), . , !
E , , . , , .



.Powers.(.01).(....).[2015.....WEB-DLRip].[720p].MVO.(Jaskier).+.Original.torrent
  ! ! 
:   [ : ] c?
MAGNET
MAGNET


.torrent

31 KB

: DHT
: - 315 , - 168
: 11,89 GB
5 (: 2)
: 5
:
 FacebookTwitterLivejournal Liveinternet
 

 
: