Loading...
Error

Скачать Авария / Breakdown (Джонатан Мостоу / Jonathan Mostow) [1997, триллер, DVDRip] [Open Matte] [MVO] (РТР) + [Orig] Eng торрент без регистрации

 
Статистика раздачи
Размер:  1,46 GB   |    Скачан:  150 раз
Сидов:  1  [  0 KB/s  ]  
 
Автор Сообщение

leon030982

[] 

Авария / Breakdown (Open Matte)


Год выпуска: 1997
Страна: США
Жанр: триллер
Продолжительность: 01:29:18
Перевод: Профессиональный (многоголосый, закадровый) [РТР]
[Текст читали: Алексей Демидов, Сергей Чекан и Лариса Некипелова]
Cубтитры: нет
Оригинальная аудиодорожка: английский

Режиссер: Джонатан Мостоу / Jonathan Mostow

В ролях: Курт Расселл, Кэтлин Куинлан, Рекс Линн, Дж.Т. Уолш, Джек Нозуорти, Мойра Харрис, Ким Робиллард, М. С. Гэйни, Джек МакГи, Ритч Бринкли


Джефф и Эми Тейлор решили переехать к новому месту жительства в Сан-Диего на дорогом джипе. По дороге Джефф чуть не врезался в пикап с двумя местными отморозками. А когда джип неожиданно заглох на обочине пустынной трассы, водитель попутного трейлера Рэд Барр предложил подвезти Эми до ближайшего телефона, а Джефф остался охранять машину...

Сэмпл

>>>Сравнение скриншотов Widescreen Vs. Open Matte<<<

Качество: DVDRip
Формат видео: AVI
Видео кодек: XviD
Аудио: AC3
Видео: 704x400 (1.76:1), 25 fps, XviD build 73 ~1882 kbps avg, 0.26 bit/pixel
Аудио #1: 48.0 KHz, AC3, 2 channels (L, R) ~ 192 kbps (РТР)
Аудио #2: 48.0 KHz, AC3, 2 channels (L, R) ~ 256 kbps (Оригинал)
За видео благодарим B.A.T.U.S.A.Y., за дорожку РТР - Taylorjack, за работу над дорогой - shocker80
General
Complete name : D:\Авария.avi
Format : AVI
Format/Info : Audio Video Interleave
File size : 1.46 GiB
Duration : 1h 29mn
Overall bit rate : 2 345 Kbps
Writing application : VirtualDubMod 1.5.10.2 (build 2540/release)
Writing library : VirtualDubMod build 2540/release
Video
ID : 0
Format : MPEG-4 Visual
Format profile : Advanced Simple@L5
Format settings, BVOP : 1
Format settings, QPel : No
Format settings, GMC : No warppoints
Format settings, Matrix : Custom
Codec ID : XVID
Codec ID/Hint : XviD
Duration : 1h 29mn
Bit rate : 1 882 Kbps
Width : 704 pixels
Height : 400 pixels
Display aspect ratio : 16:9
Frame rate : 25.000 fps
Color space : YUV
Chroma subsampling : 4:2:0
Bit depth : 8 bits
Scan type : Progressive
Compression mode : Lossy
Bits/(Pixel*Frame) : 0.267
Stream size : 1.17 GiB (80%)
Writing library : XviD 73
Audio #1
ID : 1
Format : AC-3
Format/Info : Audio Coding 3
Mode extension : CM (complete main)
Codec ID : 2000
Duration : 1h 29mn
Bit rate mode : Constant
Bit rate : 192 Kbps
Channel(s) : 2 channels
Channel positions : Front: L R
Sampling rate : 48.0 KHz
Bit depth : 16 bits
Compression mode : Lossy
Stream size : 123 MiB (8%)
Alignment : Split accross interleaves
Interleave, duration : 40 ms (1.00 video frame)
Interleave, preload duration : 500 ms
Audio #2
ID : 2
Format : AC-3
Format/Info : Audio Coding 3
Mode extension : CM (complete main)
Codec ID : 2000
Duration : 1h 29mn
Bit rate mode : Constant
Bit rate : 256 Kbps
Channel(s) : 2 channels
Channel positions : Front: L R
Sampling rate : 48.0 KHz
Bit depth : 16 bits
Compression mode : Lossy
Stream size : 164 MiB (11%)
Alignment : Split accross interleaves
Interleave, duration : 40 ms (1.00 video frame)
Interleave, preload duration : 500 ms



Скачать Авария.Breakdown.(Джонатан.Мостоу.Jonathan.Mostow).[1997.триллер.DVDRip].[Open.Matte].[MVO].(РТР).+.[Orig].Eng.torrent без регистрации
Золото ЗОЛОТАЯ РАЗДАЧА! СКАЧАННОЕ НЕ ЗАСЧИТЫВАЕТСЯ! Золото
Дата: Зарегистрирован   [ Тип: внутренний ] Как тут cкачать?
MAGNET ссылка
MAGNET ссылка


Скачать .torrent

15 KB

Статус: проверено DHT
Скачан: торрент - 150 раз, раздача полностью - 16 раз
Размер: 1,46 GB
Оценка:  5 (Голосов: 1)
Поблагодарили: 0
Поделиться ссылкой на эту раздачу с друзьями:
В контактеFacebookОдноклассникиTwitterLivejournalМой МирLiveinternet
 

 
Показать сообщения:    


Вы не можете начинать темы
Вы не можете отвечать на сообщения
Вы не можете редактировать свои сообщения
Вы не можете удалять свои сообщения
Вы не можете голосовать в опросах
Вы не можете прикреплять файлы к сообщениям
Вы можете скачивать файлы