Loading...
Error

Скачать Ничья земля / No Man's Land (Питер Уэрнер) [1987, триллер, DVDRip] [DVO]+[AVO]+[Оригинал] торрент без регистрации

 
Статистика раздачи
Размер:  1,46 GB   |    Скачан:  97 раз
Сидов:  1  [  0 KB/s  ]  
 
Автор Сообщение

Marsianka

[] 



Страна: США
Производство: Imagine Entertainment
Жанр: триллер
Год выпуска: 1987

Продолжительность: 01:42:16

Перевод: Профессиональный двухголосый, авторский

Оригинальная аудиодорожка: Английская

Режиссер: Питер Уэрнер

В ролях: Чарли Шин, Д.Б. Суини, Лара Харрис, Рэнди Куэйд, Билл Дьюк, Р.Д. Колл, Арлен Дин Снайдер, М. Эммет Уолш, Эл Шэннон, Берни Пок, Кенни Эндосо, Джеймс Ф. Келли, Лори Батлер, Клер Рен, Филип Бенишу, Линда Кэрол, Данитца Кингсли, Пегги МакКэй

Описание: Енджи Тейлор — молодой полицейский из Лос-Анджелеса, самое большое увлечение которого — спортивные автомобили. Тэд Вэррик — богатый бездельник, чье единственное хобби — угонять красивые и мощные авто. Расследуя дело об угонах автомобилей, совершенных Вэрриком, погибает полицейский. Бенджи Тейлор делает логичный вывод: это убийство — дело рук Вэррика. Чтобы доказать вину подозреваемого, Бенджи знакомится с Тэдом. Молодой полицейский понимает, что для того, чтобы полностью доказать вину Тэда Вэррика, ему придется самому стать угонщиком, работая в паре с Тэдом…



Исходник: DVD5 R2

Тип релиза: DVDRip

Контейнер: AVI

Видео: XviD, 1456 Кбит/с, 704х384
Аудио: Русский, английский (АС3, 2 ch, 192 Кбит/с)

Аудио#1: Профессиональный двухголосый
Аудио#2: Авторский (Дьяконов)
Аудио#3: Английский
Общее
Полное имя : D:залитьНичья земля.avi
Формат : AVI
Формат/Информация : Audio Video Interleave
Размер файла : 1,46 Гбайт
Продолжительность : 1 ч. 42 м.
Общий поток : 2051 Кбит/сек
Программа кодирования : VirtualDubMod 1.5.10.2 (build 2540/release)
Библиотека кодирования : VirtualDubMod build 2540/release

Видео
Идентификатор : 0
Формат : MPEG-4 Visual
Профиль формата : Advanced Simple@L5
Параметр BVOP формата : 2
Параметр QPel формата : Нет
Параметр GMC формата : Без точки перехода
Параметр матрицы формата : Default (MPEG)
Идентификатор кодека : XVID
Идентификатор кодека/Подсказка : XviD
Продолжительность : 1 ч. 42 м.
Битрейт : 1456 Кбит/сек
Ширина : 704 пикселя
Высота : 384 пикселя
Соотношение сторон : 1,85:1
Частота кадров : 23,976 кадра/сек
Цветовое пространство : YUV
Субдискретизация насыщенности : 4:2:0
Битовая глубина : 8 бит
Тип развёртки : Прогрессивная
Метод сжатия : С потерями
Бит/(Пиксели*Кадры) : 0.225
Размер потока : 1,04 Гбайт (71%)
Библиотека кодирования : XviD 1.2.1 (UTC 2008-12-04)

Аудио #1
Идентификатор : 1
Формат : AC-3
Формат/Информация : Audio Coding 3
Расширение режима : CM (complete main)
Параметр Endianness формата : Big
Идентификатор кодека : 2000
Продолжительность : 1 ч. 42 м.
Вид битрейта : Постоянный
Битрейт : 192 Кбит/сек
Каналы : 2 канала
Расположение каналов : Front: L R
Частота : 48,0 КГц
Битовая глубина : 16 бит
Метод сжатия : С потерями
Задержка видео : 2 с. 570 мс.
Размер потока : 140 Мбайт (9%)
Выравнивание : Разделение по промежуткам
Продолжительность промежутка : 42 мс. (1,00 видеокадр)
Время предзагрузки промежутка : 500 мс.

Аудио #2
Идентификатор : 2
Формат : AC-3
Формат/Информация : Audio Coding 3
Расширение режима : CM (complete main)
Параметр Endianness формата : Big
Идентификатор кодека : 2000
Продолжительность : 1 ч. 42 м.
Вид битрейта : Постоянный
Битрейт : 192 Кбит/сек
Каналы : 2 канала
Расположение каналов : Front: L R
Частота : 48,0 КГц
Битовая глубина : 16 бит
Метод сжатия : С потерями
Размер потока : 140 Мбайт (9%)
Выравнивание : Разделение по промежуткам
Продолжительность промежутка : 42 мс. (1,00 видеокадр)
Время предзагрузки промежутка : 500 мс.

Аудио #3
Идентификатор : 3
Формат : AC-3
Формат/Информация : Audio Coding 3
Профиль формата : Dolby Digital
Расширение режима : CM (complete main)
Параметр Endianness формата : Big
Идентификатор кодека : 2000
Продолжительность : 1 ч. 42 м.
Вид битрейта : Постоянный
Битрейт : 192 Кбит/сек
Каналы : 2 канала
Расположение каналов : Front: L R
Частота : 48,0 КГц
Битовая глубина : 16 бит
Метод сжатия : С потерями
Размер потока : 140 Мбайт (9%)
Выравнивание : Разделение по промежуткам
Продолжительность промежутка : 42 мс. (1,00 видеокадр)
Время предзагрузки промежутка : 500 мс.
Автор рипа:



Скачать Ничья.земля.No.Man's.Land.(Питер.Уэрнер).[1987.триллер.DVDRip].[DVO]+[AVO]+[Оригинал].torrent без регистрации
Золото ЗОЛОТАЯ РАЗДАЧА! СКАЧАННОЕ НЕ ЗАСЧИТЫВАЕТСЯ! Золото
Дата: Зарегистрирован   [ Тип: внутренний ] Как тут cкачать?
MAGNET ссылка
MAGNET ссылка


Скачать .torrent

15 KB

Статус: проверено DHT
Скачан: торрент - 97 раз, раздача полностью - 20 раз
Размер: 1,46 GB
Оценка:  - (Голосов: 0)
Поблагодарили: 0
Поделиться ссылкой на эту раздачу с друзьями:
В контактеFacebookОдноклассникиTwitterLivejournalМой МирLiveinternet
 

 
Показать сообщения:    


Вы не можете начинать темы
Вы не можете отвечать на сообщения
Вы не можете редактировать свои сообщения
Вы не можете удалять свои сообщения
Вы не можете голосовать в опросах
Вы не можете прикреплять файлы к сообщениям
Вы можете скачивать файлы