Loading...
Error

Скачать Если бы я был тобой / Se Eu Fosse Você (Даниэл Филью) [2006, комедия, DVDRip] [Sub] торрент без регистрации

 
Статистика раздачи
Размер:  813 MB   |    Скачан:  4045 раз
Сидов:  1  [  0 KB/s  ]  
 
Автор Сообщение

Marsianka

[] 

Информация о фильме
Название: Если бы я был тобой
Оригинальное название: Se Eu Fosse Você
Год выхода: 2006
Жанр: комедия
Режиссер: Даниэл Филью
В ролях: Тони Рамос, Глория Пиреш, Тьяго Ласерда, Глория Менезес, Лавиния Власак, Даниэлла Винитц, Мария Сейса, Лара Родригез, Мария Глэдис, Деннис Карвалью

О фильме:
Клаудио и Хелена находятся на грани разрыва отношений, и пока этого не случилось, должно произойти нечто такое, что помогло бы им лучше понять друг друга…


Страна: Бразилия
Продолжительность: 01:43:23
Перевод: Субтитры

Файл
Кодек: H264
Качество: DVDRip
Видео: 960 Кбит/сек, 512х288, 23,976 кадра/сек
Звук: MPEG Audio, 128 Кбит/сек, 2 канала, 44,1 КГц
Субтитры: Русские
Общее
Полное имя : D:загрузки с браузераRuTorSe.Eu.Fosse.Voce.DVDRip.Nacional.avi
Формат : AVI
Формат/Информация : Audio Video Interleave
Размер файла : 813 Мбайт
Продолжительность : 1 ч. 43 м.
Общий поток : 1100 Кбит/сек
Программа кодирования : Lavf51.12.1

Видео
Идентификатор : 0
Формат : AVC
Формат/Информация : Advanced Video Codec
Профиль формата : Baseline@L1.3
Параметр CABAC формата : Нет
Параметр ReFrames формата : 1 кадр
Параметр GOP формата : M=1, N=12
Идентификатор кодека : H264
Продолжительность : 1 ч. 43 м.
Битрейт : 960 Кбит/сек
Ширина : 512 пикселей
Высота : 288 пикселей
Соотношение сторон : 16:9
Режим частоты кадров : Переменный
Частота кадров : 23,976 кадра/сек
Цветовое пространство : YUV
Субдискретизация насыщенности : 4:2:0
Битовая глубина : 8 бит
Тип развёртки : Прогрессивная
Бит/(Пиксели*Кадры) : 0.272
Размер потока : 710 Мбайт (87%)

Аудио
Идентификатор : 1
Формат : MPEG Audio
Версия формата : Version 1
Профиль формата : Layer 3
Режим : Joint stereo
Идентификатор кодека : 55
Идентификатор кодека/Подсказка : MP3
Продолжительность : 1 ч. 43 м.
Вид битрейта : Постоянный
Битрейт : 128 Кбит/сек
Каналы : 2 канала
Частота : 44,1 КГц
Метод сжатия : С потерями
Размер потока : 94,4 Мбайт (12%)
Выравнивание : Соединение по промежуткам
Продолжительность промежутка : 26 мс. (0,63 видеокадр)
Время предзагрузки промежутка : 26 мс.



Скачать Если.бы.я.был.тобой.Se.Eu.Fosse.Você.(Даниэл.Филью).[2006.комедия.DVDRip].[Sub].torrent без регистрации
Золото ЗОЛОТАЯ РАЗДАЧА! СКАЧАННОЕ НЕ ЗАСЧИТЫВАЕТСЯ! Золото
Дата: Зарегистрирован   [ Тип: внутренний ] Как тут cкачать?
MAGNET ссылка
MAGNET ссылка


Скачать .torrent

17 KB

Статус: проверено DHT
Скачан: торрент - 4045 раз, раздача полностью - 2 раз
Размер: 813 MB
Оценка:  - (Голосов: 0)
Поблагодарили: 0
Поделиться ссылкой на эту раздачу с друзьями:
В контактеFacebookОдноклассникиTwitterLivejournalМой МирLiveinternet
 

 
Показать сообщения:    


Вы не можете начинать темы
Вы не можете отвечать на сообщения
Вы не можете редактировать свои сообщения
Вы не можете удалять свои сообщения
Вы не можете голосовать в опросах
Вы не можете прикреплять файлы к сообщениям
Вы можете скачивать файлы