Loading...
Error

Скачать Тайны и ложь / Secrets & Lies (Майк Ли) [1996, драма, BDRip-AVC] [MVO]+[Sub]x2 торрент без регистрации

 
Статистика раздачи
Размер:  3,2 GB   |    Скачан:  108 раз
Сидов:  1  [  0 KB/s  ]  
 
Автор Сообщение

Marsianka

[] 

Год выпуска: 1996
Страна: Франция, Великобритания
Жанр: драма
Продолжительность: 02:21:54
Перевод: профессиональный многоголосый
Субтитры: русские, английские (для слабослышащих)

Режиссёр: Майк Ли

В ролях: Бренда Блетин, Марианн Жан-Баптист, Тимоти Сполл, Филлис Логан, Клэр Рашбрук, Элизабет Беррингтон, Мишель Остин, Ли Росс, Лесли Мэнвилл, Рон Кук, Эмма Амос, Брайан Бовелл, Тревор Лэйрд, Клер Перкинс, Элиас Перкинс МакКук, Джейн Митчел, Дженис Аква, Кили Фландерс, Ханна Дэвис, Теренс Харви, Кейт О’Мэлли, Джо Таккер, Ричард Симс, Грант Мастерс, Энни Хэйес, Жан Эйнсли, Дэниэл Смит, Люси Шин, Фрэнсис Руффель, Феликс Мэнли, Нитин Чандра Ганатра, Метин Марлоу, Аманда Кроссли, Су Эллиот

Описание: У чернокожей лондонской девушки Гортензии умирает приёмная мать, и она решает найти свою биологическую мать. Параллельно выписываются образы Синди Роуз, матери Гортензии, которую она ищет, Роксаны, дочери Синди, и сводной сестры героини с молодым ухажёром, брата матери с его женой, живущих в отчуждении, близком к тихой ненависти… Многое изменится с появлением в доме нового члена семьи...



Качество: BDRip-AVC Сравнение с исходником
Формат: MKV
Видео кодек: H.264
Аудио кодек: AC3
Видео: 2782 Кбит/с, 1024x554, 24 кадра/с, 0.204 bpp
Аудио 1: русский, AC3, 192 kbps, 2 ch, 48 kHz [профессиональный многоголосый, К5]
Аудио 2: английский, AC3, 192 kbps, 2 ch, 48 kHz [оригинал]

Имеются неименованные главы/чаптеры.
Главная премия на операторском фестивале «Камеримаж», приз Австралийского киноинститута, премия Французского синдиката критиков и «Независимый дух» в США за лучшую иностранную ленту, «Серебряная лента» в Италии лучшему иностранному режиссёру, приз «Кинема дзюнпо» за лучший иностранный фильм в Японии по итогам 1997 года.

Оскар, 1997 год
Номинации (5):
Лучший фильм
Лучшая женская роль (Бренда Блетин)
Лучшая женская роль второго плана (Марианн Жан-Батист)
Лучший режиссер (Майк Ли)
Лучший сценарий

Золотой глобус, 1997 год
Победитель (1):
Лучшая женская роль (драма) (Бренда Блетин)

Номинации (2):
Лучший фильм (драма)
Лучшая женская роль второго плана (Марианн Жан-Батист)

Британская академия, 1997 год
Победитель (3):
Лучшая женская роль (Бренда Блетин)
Лучший оригинальный сценарий
Премия имени Александра Корды за самый выдающийся британский фильм года

Номинации (3):
Лучший фильм
Лучшая женская роль второго плана (Марианн Жан-Батист)
Премия имени Дэвида Лина за достижения в режиссуре (Майк Ли)

Сезар, 1997 год
Номинации (1):
Лучший фильм на иностранном языке

Гойя, 1997 год
Победитель (1):
Лучший европейский фильм — «Франция, Великобритания»

Премия Гильдии актеров, 1997 год
Номинации (1):
Лучшая женская роль (Бренда Блетин)

Каннский кинофестиваль, 1996 год
Победитель (3):
Золотая пальмовая ветвь
Серебряная премия за лучшую женскую роль (Бренда Блетин)
Приз экуменического (христианского) жюри

Европейская киноакадемия, 1996 год
Номинации (1):
Лучший фильм
frame I:1485 Avg QP:19.28 size: 74541
frame P:34888 Avg QP:20.45 size: 31372
frame B:167872 Avg QP:22.10 size: 10849

Общее
Уникальный идентификатор : 220224043246962976017170359348062914537 (0xA5AD9BA1B7374ACFA47981923B1907E9)
Полное имя : D:VideoTajny i log.1996.BDRip.AVC.mkv
Формат : Matroska
Версия формата : Version 4 / Version 2
Размер файла : 3,20 Гбайт
Продолжительность : 2 ч. 21 м.
Общий поток : 3230 Кбит/сек
Дата кодирования : UTC 2015-03-08 05:02:41
Программа кодирования : mkvmerge v7.7.0 ('Six Voices') 64bit built on Feb 28 2015 23:39:33
Библиотека кодирования : libebml v1.3.1 + libmatroska v1.4.2
DURATION : 02:18:43.749000000
NUMBER_OF_FRAMES : 2284
NUMBER_OF_BYTES : 72762
_STATISTICS_WRITING_APP : mkvmerge v7.7.0 ('Six Voices') 64bit built on Feb 28 2015 23:39:33
_STATISTICS_WRITING_DATE_UTC : 2015-03-08 05:02:41
_STATISTICS_TAGS : BPS DURATION NUMBER_OF_FRAMES NUMBER_OF_BYTES

Видео
Идентификатор : 1
Формат : AVC
Формат/Информация : Advanced Video Codec
Профиль формата : High@L4.1
Параметр CABAC формата : Да
Параметр ReFrames формата : 9 кадров
Идентификатор кодека : V_MPEG4/ISO/AVC
Продолжительность : 2 ч. 21 м.
Битрейт : 2782 Кбит/сек
Ширина : 1024 пикселя
Высота : 554 пикселя
Соотношение сторон : 1,85:1
Режим частоты кадров : Постоянный
Частота кадров : 24,000 кадра/сек
Цветовое пространство : YUV
Субдискретизация насыщенности : 4:2:0
Битовая глубина : 8 бит
Тип развёртки : Прогрессивная
Бит/(Пиксели*Кадры) : 0.204
Размер потока : 2,76 Гбайт (86%)
Заголовок : BDRip -- STarankov
Библиотека кодирования : x264 core 142 r2431 ac76440
Настройки программы : cabac=1 / ref=9 / deblock=1:-2:-2 / analyse=0x3:0x113 / me=umh / subme=9 / psy=1 / psy_rd=1.00:0.15 / mixed_ref=1 / me_range=32 / chroma_me=1 / trellis=2 / 8x8dct=1 / cqm=0 / deadzone=21,11 / fast_pskip=1 / chroma_qp_offset=-3 / threads=6 / lookahead_threads=1 / sliced_threads=0 / nr=0 / decimate=1 / interlaced=0 / bluray_compat=0 / constrained_intra=0 / bframes=8 / b_pyramid=2 / b_adapt=2 / b_bias=0 / direct=3 / weightb=1 / open_gop=0 / weightp=2 / keyint=230 / keyint_min=23 / scenecut=40 / intra_refresh=0 / rc_lookahead=40 / rc=crf / mbtree=0 / crf=20.0 / qcomp=0.60 / qpmin=0 / qpmax=69 / qpstep=4 / vbv_maxrate=40000 / vbv_bufsize=50000 / crf_max=0.0 / nal_hrd=none / filler=0 / ip_ratio=1.40 / pb_ratio=1.30 / aq=1:1.00
Язык : English
Default : Да
Forced : Нет
DURATION : 02:21:50.209000000
NUMBER_OF_FRAMES : 204245
NUMBER_OF_BYTES : 3026402250
_STATISTICS_WRITING_APP : mkvmerge v7.7.0 ('Six Voices') 64bit built on Feb 28 2015 23:39:33
_STATISTICS_WRITING_DATE_UTC : 2015-03-08 05:02:41
_STATISTICS_TAGS : BPS DURATION NUMBER_OF_FRAMES NUMBER_OF_BYTES

Аудио #1
Идентификатор : 2
Формат : AC-3
Формат/Информация : Audio Coding 3
Расширение режима : CM (complete main)
Параметр Endianness формата : Big
Идентификатор кодека : A_AC3
Продолжительность : 2 ч. 21 м.
Вид битрейта : Постоянный
Битрейт : 192 Кбит/сек
Каналы : 2 канала
Расположение каналов : Front: L R
Частота : 48,0 КГц
Битовая глубина : 16 бит
Метод сжатия : С потерями
Размер потока : 195 Мбайт (6%)
Заголовок : MVO (R5)
Язык : Russian
Default : Да
Forced : Нет

Аудио #2
Идентификатор : 3
Формат : AC-3
Формат/Информация : Audio Coding 3
Расширение режима : CM (complete main)
Параметр Endianness формата : Big
Идентификатор кодека : A_AC3
Продолжительность : 2 ч. 21 м.
Вид битрейта : Постоянный
Битрейт : 192 Кбит/сек
Каналы : 2 канала
Расположение каналов : Front: L R
Частота : 48,0 КГц
Битовая глубина : 16 бит
Метод сжатия : С потерями
Размер потока : 195 Мбайт (6%)
Заголовок : Original
Язык : English
Default : Нет
Forced : Нет

Текст #1
Идентификатор : 4
Формат : UTF-8
Идентификатор кодека : S_TEXT/UTF8
Идентификатор кодека/Информация : UTF-8 Plain Text
Заголовок : русские
Язык : Russian
Default : Нет
Forced : Нет

Текст #2
Идентификатор : 5
Формат : UTF-8
Идентификатор кодека : S_TEXT/UTF8
Идентификатор кодека/Информация : UTF-8 Plain Text
Заголовок : английские (для слабослышащих)
Язык : English
Default : Нет
Forced : Нет

Меню
00:00:00.000 : :Chapter 01
00:05:00.000 : :Chapter 02
00:10:00.000 : :Chapter 03
00:15:00.000 : :Chapter 04
00:20:00.000 : :Chapter 05
00:25:00.000 : :Chapter 06
00:30:00.000 : :Chapter 07
00:35:00.000 : :Chapter 08
00:40:00.000 : :Chapter 09
00:45:00.000 : :Chapter 10
00:50:00.000 : :Chapter 11
00:55:00.000 : :Chapter 12
01:00:00.000 : :Chapter 13
01:05:00.000 : :Chapter 14
01:10:00.000 : :Chapter 15
01:15:00.000 : :Chapter 16
01:20:00.000 : :Chapter 17
01:25:00.000 : :Chapter 18
01:30:00.000 : :Chapter 19
01:35:00.000 : :Chapter 20
01:40:00.000 : :Chapter 21
01:45:00.000 : :Chapter 22
01:50:00.000 : :Chapter 23
01:55:00.000 : :Chapter 24
02:00:00.000 : :Chapter 25
02:05:00.000 : :Chapter 26
02:10:00.000 : :Chapter 27
02:15:00.000 : :Chapter 28
02:20:00.000 : :Chapter 29



Скачать Тайны.и.ложь.Secrets.&.Lies.(Майк.Ли).[1996.драма.BDRip-AVC].[MVO]+[Sub]x2.torrent без регистрации
Золото ЗОЛОТАЯ РАЗДАЧА! СКАЧАННОЕ НЕ ЗАСЧИТЫВАЕТСЯ! Золото
Дата: Зарегистрирован   [ Тип: внутренний ] Как тут cкачать?
MAGNET ссылка
MAGNET ссылка


Скачать .torrent

17 KB

Статус: проверено DHT
Скачан: торрент - 108 раз, раздача полностью - 0 раз
Размер: 3,2 GB
Оценка:  - (Голосов: 0)
Поблагодарили: 1
Поделиться ссылкой на эту раздачу с друзьями:
В контактеFacebookОдноклассникиTwitterLivejournalМой МирLiveinternet
 

 
Показать сообщения:    


Вы не можете начинать темы
Вы не можете отвечать на сообщения
Вы не можете редактировать свои сообщения
Вы не можете удалять свои сообщения
Вы не можете голосовать в опросах
Вы не можете прикреплять файлы к сообщениям
Вы можете скачивать файлы