Loading...
Error

Скачать Я Зомби / iZombie (сезон 01) (Эйчиро Хасуми) [2015, ужасы, фантастика, драма, криминал, WEB-DLRip] [MVO (NewStudio)] торрент без регистрации

 
Статистика раздачи
Размер:  7,81 GB   |    Скачан:  164 раза
Сидов:  1  [  0 KB/s  ]  
 
Автор Сообщение

МихаНЕзатор

[] 

Информация о фильме
Название: Я - Зомби
Оригинальное название: iZombie
Год выхода: 2015
Жанр: Ужасы, фантастика, драма, криминал
Режиссер: Эйчиро Хасуми

В ролях: Роуз МакИвер, Малкольм Гудвин, Рахул Коли, Молли Хэйгэн, Ник Пурча, Элиз Гэтьен, Мэттью МакКоулл, Роб Карпентер и др.

О фильме: После вечеринки на яхте Оливия Мур, будущий кардиохирург, жизнерадостная, активная и пышущая здоровьем девушка, становится зомби. Теперь Лив похожа на представителя готов: бледная кожа, тёмные круги вокруг глаз и почти белые волосы. Она устраивается на работу в морг, стажёром доктора Рави Чакрабарти, чтобы иметь доступ к мозгам, которые ей приходиться есть для поддержания человеческой сущности. Однако с каждым съеденным мозгом Лив получает воспоминания трупа. С помощью доктора Чакрабарти, узнавшего её секрет, и детектива полиции Клайва Бабино Лив начинает раскрывать убийства тех людей, чей мозг съела.

Релиз от:

Страна: США
Студия: CW
Продолжительность: 13 x ~00:43:00
Перевод: Профессиональный (многоголосый, закадровый) [NewStudio]

Файл
Формат: AVI
Качество: WEB-DLRip
Видео: XviD, 720x400, ~1800 kbps, 23.976 fps
Аудио: AC3, 48.0 KHz, 6 ch, 192 Kbps
Субтитры: Нет

АНОНСЫ ПОПУЛЯРНЫХ РАЗДАЧ


Торрент обновлён, добавлена 13-я серия!

01. Пилот
02. Brother, Can You Spare a Brain / Прибереги мозг, братец
03. The Exterminator / Истребитель
04. Liv and Let Clive / Живи и дай жить другим
05. Flight of the Living Dead / Рейс живых мертвецов
06. Virtual Reality Bites / Виртуально-реальные укусы
07. Maternity Liv / Мамочка Лив
08. Dead Air / Мёртвый эфир
09. Patriot Brains / Мозги патриота
10. Mr. Berserk / Мистер Берсерк
11. Astroburger / Астробургер
12. Dead Rat, Live Rat, Brown Rat, White Rat / Мёртвая крыса, живая крыса, коричневая крыса, белая крыса
13. Blaine's World / Мир Блэйна
Complete name : E:KinoYa.Zombi.XviD.GeneralfilmYa.Zombi.S01.2015.XviD.NS.GeneralfilmYa.Zombi.s01e13.2015.XviD.NS.Generalfilm.avi
Format : AVI
Format/Info : Audio Video Interleave
File size : 610 MiB
Duration : 42mn 33s
Overall bit rate : 2 003 Kbps
Writing application : VirtualDubMod 1.5.10.3 | www.virtualdub-fr.org || (build 2550/release)
Writing library : VirtualDubMod build 2550/release

Video
ID : 0
Format : MPEG-4 Visual
Format profile : Advanced Simple@L5
Format settings, BVOP : 2
Format settings, QPel : Yes
Format settings, GMC : 3 warppoints
Format settings, Matrix : Default (H.263)
Codec ID : XVID
Codec ID/Hint : XviD
Duration : 42mn 33s
Bit rate : 1 802 Kbps
Width : 720 pixels
Height : 400 pixels
Display aspect ratio : 16:9
Frame rate : 23.976 fps
Color space : YUV
Chroma subsampling : 4:2:0
Bit depth : 8 bits
Scan type : Progressive
Compression mode : Lossy
Bits/(Pixel*Frame) : 0.261
Stream size : 548 MiB (90%)
Writing library : XviD 1.2.1 (UTC 2008-12-04)

Audio
ID : 1
Format : AC-3
Format/Info : Audio Coding 3
Mode extension : CM (complete main)
Format settings, Endianness : Big
Codec ID : 2000
Duration : 42mn 33s
Bit rate mode : Constant
Bit rate : 192 Kbps
Channel(s) : 6 channels
Channel positions : Front: L C R, Side: L R, LFE
Sampling rate : 48.0 KHz
Compression mode : Lossy
Stream size : 58.4 MiB (10%)
Alignment : Split accross interleaves
Interleave, duration : 42 ms (1.00 video frame)
Interleave, preload duratio : 500 ms



Скачать Я.Зомби.iZombie.(сезон.01).(Эйчиро.Хасуми).[2015.ужасы.фантастика.драма.криминал.WEB-DLRip].[MVO.(NewStudio)].torrent без регистрации
Золото ЗОЛОТАЯ РАЗДАЧА! СКАЧАННОЕ НЕ ЗАСЧИТЫВАЕТСЯ! Золото
Дата: Зарегистрирован   [ Тип: внутренний ] Как тут cкачать?
MAGNET ссылка
MAGNET ссылка


Скачать .torrent

22 KB

Статус: проверено DHT
Скачан: торрент - 164 раз, раздача полностью - 76 раз
Размер: 7,81 GB
Оценка:  5 (Голосов: 4)
Поблагодарили: 6
Поделиться ссылкой на эту раздачу с друзьями:
В контактеFacebookОдноклассникиTwitterLivejournalМой МирLiveinternet
 

 
Показать сообщения:    


Вы не можете начинать темы
Вы не можете отвечать на сообщения
Вы не можете редактировать свои сообщения
Вы не можете удалять свои сообщения
Вы не можете голосовать в опросах
Вы не можете прикреплять файлы к сообщениям
Вы можете скачивать файлы