Loading...
Error

Скачать Детектив / C+ jing taam (Оксид Пан) [2007, триллер, драма, BDRip] [720p] [VO]+[Sub]x2 торрент без регистрации

 
Статистика раздачи
Размер:  4,66 GB   |    Скачан:  130 раз
Сидов:  1  [  0 KB/s  ]  
 
Автор Сообщение

Marsianka

[] 

Информация о фильме
Название: Детектив
Оригинальное название: C+ jing taam
Год выхода: 2007
Жанр: триллер, драма
Режиссер: Оксид Пан
В ролях: Аарон Квок, Лью Кай Чи, Так-бун Вонг, Сиу-Минг Лау, Йю-Чюн Лаи, Фуй-Он Шин, Тин-Нго Сюн, Джо Кук, Сует Сиу, Наттасини Пинёпиявид

О фильме:
Не самый везучий частный детектив Там получает заказ, показавшийся ему в начале отличным способом заработать лёгкие деньги — сумасбродный клиент просит найти девушку, которая якобы хочет его убить. Но занявшись расследованием Там отчётливо начинает понимать, что жертвой может стать не только его клиент, но и множество других людей, включая его самого…



Страна: Гонконг
Продолжительность: 01:49:32
Перевод: любительский одноголосый, закадровый

Файл
Кодек: H.264
Качество: BDRip 720p
Видео: MPEG-4 / AVC, 1280x546 (2.35:1), 24 fps ~ 4393 Kbps
Аудио #1: AC3, 48 KHz 2 ch ~ 192 Kb/s (русский)
Аудио #1: DTS, 48 KHz 6 ch ~ 1510 Kb/s (китайский)
Субтитры:
русские (превод Владимир Мерленко), английские (UTF-8)

Общее
Уникальный идентификатор : 250526239161327925879831564159782992482 (0xBC79993CE7198B438F6B71B8074BBA62)
Полное имя : Q:TorFThe.Detective.2007.BluRay.720p.x264.mkv
Формат : Matroska
Версия формата : Version 2
Размер файла : 4,66 Гбайт
Продолжительность : 1 ч. 49 м.
Общий поток : 6093 Кбит/сек
Дата кодирования : UTC 2011-08-11 11:29:13
Программа кодирования : mkvmerge v3.2.0 ('Beginnings') built on Feb 12 2010 16:46:17
Библиотека кодирования : libebml v0.7.9 + libmatroska v0.8.1

Видео
Идентификатор : 1
Формат : AVC
Формат/Информация : Advanced Video Codec
Профиль формата : High@L4.1
Параметр CABAC формата : Да
Параметр ReFrames формата : 12 кадров
Идентификатор кодека : V_MPEG4/ISO/AVC
Продолжительность : 1 ч. 49 м.
Битрейт : 4393 Кбит/сек
Ширина : 1280 пикселей
Высота : 546 пикселей
Соотношение сторон : 2,35:1
Частота кадров : 24,000 кадра/сек
Цветовое пространство : YUV
Субдискретизация насыщенности : 4:2:0
Битовая глубина : 8 бит
Тип развёртки : Прогрессивная
Бит/(Пиксели*Кадры) : 0.262
Размер потока : 3,27 Гбайт (70%)
Библиотека кодирования : x264 core 115 r2008+578 3864dbe
Настройки программы : cabac=1 / ref=12 / deblock=1:-3:-3 / analyse=0x3:0x113 / me=umh / subme=9 / psy=1 / fade_compensate=0.00 / psy_rd=1.05:0.10 / mixed_ref=1 / me_range=32 / chroma_me=1 / trellis=2 / 8x8dct=1 / cqm=1 / deadzone=21,11 / fast_pskip=0 / chroma_qp_offset=-2 / threads=6 / sliced_threads=0 / nr=0 / decimate=1 / interlaced=0 / bluray_compat=0 / constrained_intra=0 / fgo=0 / bframes=6 / b_pyramid=2 / b_adapt=2 / b_bias=0 / direct=3 / weightb=1 / open_gop=0 / weightp=2 / keyint=250 / keyint_min=24 / scenecut=40 / intra_refresh=0 / rc_lookahead=40 / rc=2pass / mbtree=1 / bitrate=4393 / ratetol=1.0 / qcomp=0.60 / qpmin=3 / qpmax=69 / qpstep=4 / cplxblur=20.0 / qblur=0.5 / vbv_maxrate=40000 / vbv_bufsize=30000 / nal_hrd=none / ip_ratio=1.40 / aq=1:1.00
Язык : Chinese
Default : Да
Forced : Да

Аудио #1
Идентификатор : 2
Формат : AC-3
Формат/Информация : Audio Coding 3
Расширение режима : CM (complete main)
Идентификатор кодека : A_AC3
Продолжительность : 1 ч. 49 м.
Вид битрейта : Постоянный
Битрейт : 192 Кбит/сек
Каналы : 2 канала
Расположение каналов : Front: L R
Частота : 48,0 КГц
Битовая глубина : 16 бит
Метод сжатия : С потерями
Размер потока : 150 Мбайт (3%)
Заголовок : VO
Язык : Russian
Default : Да
Forced : Нет

Аудио #2
Идентификатор : 3
Формат : DTS
Формат/Информация : Digital Theater Systems
Идентификатор кодека : A_DTS
Продолжительность : 1 ч. 49 м.
Вид битрейта : Постоянный
Битрейт : 1510 Кбит/сек
Каналы : 6 каналов
Расположение каналов : Front: L C R, Side: L R, LFE
Частота : 48,0 КГц
Битовая глубина : 24 бит
Метод сжатия : С потерями
Размер потока : 1,16 Гбайт (25%)
Заголовок : Cantonese DTS 1509Kbps
Язык : Chinese
Default : Нет
Forced : Нет

Текст #1
Идентификатор : 4
Формат : UTF-8
Идентификатор кодека : S_TEXT/UTF8
Идентификатор кодека/Информация : UTF-8 Plain Text
Заголовок : sub Vladimir Merlenko
Язык : Russian
Default : Нет
Forced : Нет

Текст #2
Идентификатор : 5
Формат : UTF-8
Идентификатор кодека : S_TEXT/UTF8
Идентификатор кодека/Информация : UTF-8 Plain Text
Заголовок : sub
Язык : English
Default : Нет
Forced : Нет
Семпл



Скачать Детектив.C+.jing.taam.(Оксид.Пан).[2007.триллер.драма.BDRip].[720p].[VO]+[Sub]x2.torrent без регистрации
Золото ЗОЛОТАЯ РАЗДАЧА! СКАЧАННОЕ НЕ ЗАСЧИТЫВАЕТСЯ! Золото
Дата: Зарегистрирован   [ Тип: внутренний ] Как тут cкачать?
MAGNET ссылка
MAGNET ссылка


Скачать .torrent

24 KB

Статус: проверено DHT
Скачан: торрент - 130 раз, раздача полностью - 0 раз
Размер: 4,66 GB
Оценка:  - (Голосов: 0)
Поблагодарили: 1
Поделиться ссылкой на эту раздачу с друзьями:
В контактеFacebookОдноклассникиTwitterLivejournalМой МирLiveinternet
 

 
Показать сообщения:    


Вы не можете начинать темы
Вы не можете отвечать на сообщения
Вы не можете редактировать свои сообщения
Вы не можете удалять свои сообщения
Вы не можете голосовать в опросах
Вы не можете прикреплять файлы к сообщениям
Вы можете скачивать файлы