Loading...
Error

Скачать Огонь из преисподней / Fire down below (Феликс Энрикез Алькала) [1997, боевик, триллер, драма, DVDRip] [Dub] торрент без регистрации

 
Статистика раздачи
Размер:  744 MB   |    Скачан:  102 раза
Сидов:  1  [  0 KB/s  ]  
 
Автор Сообщение

Marsianka

[] 

Страна: США
Производство: Seagal/Nasso Productions

Жанр: боевик, триллер, драма
Год выпуска: 1997
Продолжительность: 01:40:33

Перевод: Профессиональный (полное дублирование)
Оригинальная аудиодорожка: нет
Cубтитры: нет

Режиссер: Феликс Энрикез Алькала / Félix Enríquez Alcalá

В ролях:
Стивен Сигал / Steven Seagal, Марж Хелгенбергер / Marg Helgenberger, Стивен Лэнг / Stephen Lang, Брэд Хант / Brad Hunt, Крис Кристофферсон / Kris Kristofferson, Гарри Дин Стэнтон /Harry Dean Stanton, Левон Хельм / Levon Helm, Марк Колли / Mark Collie, Алекс Харви / Alex Harvey, Эд Брюс / Ed Bruce...

Роли дублировали: Борис Клюев, Владимир Антоник, Наталья Казначеева, Дмитрий Матвеев, Вячеслав Баранов...

Описание:
В Аппалачах, в живописной долине, разворачивается действие этого жесткого боевика. Беспринципный магнат и его банда хозяйничают в долине, разрушая в погоне за прибылью богатейшую природу района. И, самое страшное, у них на складах хранятся тонны химического ядовитого продукта, способного уничтожить половину всего живого в долине. Местные жители запуганы, чиновники подкуплены, а инспектор по охране окружающей среды убит. На место действия прибывает секретный агент Джек Таггерт с целью выяснить обстановку и рассчитаться сполна с магнатом и его головорезами…

Исходник: DVD5 R5
Тип релиза: DVDRip
Контейнер: AVI

Видео: 656x368 (16:9), 25,000 fps, XviD ~ 897 kbps avg, 0.149 bit/pixel
Аудио: 48 kHz, MP3 2.0, 128 kbps

Раздача от:

Общее
Полное имя : Огонь.из.преисподней.1997.DVDRip-745_[New-team]_by_AVP_Studio.avi
Формат : AVI
Формат/Информация : Audio Video Interleave
Размер файла : 744 Мбайт
Продолжительность : 1 ч. 40 м.
Общий поток : 1035 Кбит/сек
Программа кодирования : VirtualDubModRus 1.5.10.2 (build 2542/release)
Библиотека кодирования : VirtualDubMod build 2542/release

Видео
Идентификатор : 0
Формат : MPEG-4 Visual
Профиль формата : Advanced Simple@L5
Параметр BVOP формата : 1
Параметр QPel формата : Нет
Параметр GMC формата : Без точки перехода
Параметр матрицы формата : Выборочная
Идентификатор кодека : XVID
Идентификатор кодека/Подсказка : XviD
Продолжительность : 1 ч. 40 м.
Битрейт : 897 Кбит/сек
Ширина : 656 пикселей
Высота : 368 пикселей
Соотношение сторон : 16:9
Частота кадров : 25,000 кадров/сек
Цветовое пространство : YUV
Субдискретизация насыщенности : 4:2:0
Битовая глубина : 8 бит
Тип развёртки : Прогрессивная
Метод сжатия : С потерями
Бит/(Пиксели*Кадры) : 0.149
Размер потока : 645 Мбайт (87%)
Библиотека кодирования : XviD 73

Аудио
Идентификатор : 1
Формат : MPEG Audio
Версия формата : Version 1
Профиль формата : Layer 3
Идентификатор кодека : 55
Идентификатор кодека/Подсказка : MP3
Продолжительность : 1 ч. 40 м.
Вид битрейта : Постоянный
Битрейт : 128 Кбит/сек
Каналы : 2 канала
Частота : 48,0 КГц
Метод сжатия : С потерями
Размер потока : 92,1 Мбайт (12%)
Выравнивание : Соединение по промежуткам
Продолжительность промежутка : 40 мс. (1,00 видеокадр)
Время предзагрузки промежутка : 504 мс.
Библиотека кодирования : LAME3.99r
Настройки программы : -m s -V 4 -q 2 -lowpass 17 -b 128



Скачать Огонь.из.преисподней.Fire.down.below.(Феликс.Энрикез.Алькала).[1997.боевик.триллер.драма.DVDRip].[Dub].torrent без регистрации
Золото ЗОЛОТАЯ РАЗДАЧА! СКАЧАННОЕ НЕ ЗАСЧИТЫВАЕТСЯ! Золото
Дата: Зарегистрирован   [ Тип: внутренний ] Как тут cкачать?
MAGNET ссылка
MAGNET ссылка


Скачать .torrent

15 KB

Статус: проверено DHT
Скачан: торрент - 102 раз, раздача полностью - 6 раз
Размер: 744 MB
Оценка:  - (Голосов: 0)
Поблагодарили: 0
Поделиться ссылкой на эту раздачу с друзьями:
В контактеFacebookОдноклассникиTwitterLivejournalМой МирLiveinternet
 

 
Показать сообщения:    


Вы не можете начинать темы
Вы не можете отвечать на сообщения
Вы не можете редактировать свои сообщения
Вы не можете удалять свои сообщения
Вы не можете голосовать в опросах
Вы не можете прикреплять файлы к сообщениям
Вы можете скачивать файлы