Loading...
Error

Скачать Лето и дым / Summer And Smoke (Питер Гленвилл) [1961, драма, мелодрама, BDRip-AVC] [MVO]+[Оригинал] торрент без регистрации

 
Статистика раздачи
Размер:  2,56 GB   |    Скачан:  102 раза
Сидов:  1  [  0 KB/s  ]  
 
Автор Сообщение

Marsianka

[] 

Год выпуска: 1961
Страна: США
Жанр: драма, мелодрама
Продолжительность: 01:58:48
Перевод: профессиональный многоголосый
Субтитры: нет

Режиссёр: Питер Гленвилл

В ролях: Джеральдин Пейдж, Рита Морено, Уна Меркел, Лоуренс Харви, Джон МакИнтайр, Томас Гомес, Памела Тиффин, Малкольм Аттербери, Ли Патрик, Макс Шоуолтер

Описание: Скромная, зажатая женщина влюбляется в молодого и энергичного студента-медика, который не торопится брать на себя какие-либо обязательства, пока не становится слишком поздно... Фильм - по пьесе Теннесси Уильямса.



Качество: BDRip-AVC Сравнение с исходником
Формат: MKV
Видео кодек: H.264
Аудио кодек: AC3
Видео: 2638 Кбит/с, 1024x438, 23.976 кадра/с, 0.245 bpp
Аудио 1: русский, AC3, 192 kbps, 2 ch, 48 kHz [профессиональный многоголосый, Paramount Channel]
Аудио 2: английский, AC3, 192 kbps, 1 ch, 48 kHz [оригинал]
Оскар, 1962 год
Номинации (4):
Лучшая женская роль (Джеральдин Пейдж)
Лучшая женская роль второго плана (Уна Меркел)
Лучшая работа художника (цветные фильмы)
Лучший саундтрек для драматических/комедийных картин

Золотой глобус, 1962 год
Победитель (1):
Лучшая женская роль (драма) (Джеральдин Пейдж)

Номинации (2):
Лучший саундтрек
Самый многообещающий новичок среди женщин (Памела Тиффин)

Венецианский кинофестиваль, 1961 год
Номинации (1):
Золотой лев
frame I:960 Avg QP:19.65 size: 59935
frame P:28398 Avg QP:20.91 size: 26954
frame B:141546 Avg QP:22.94 size: 11166

Общее
Уникальный идентификатор : 226097589213588597967860474468581435038 (0xAA18CFCE533B0A0BA39C175FE7F2E69E)
Полное имя : D:VideoLeto i dym.1961.BDRip.AVC.mkv
Формат : Matroska
Версия формата : Version 4 / Version 2
Размер файла : 2,56 Гбайт
Продолжительность : 1 ч. 58 м.
Общий поток : 3083 Кбит/сек
Дата кодирования : UTC 2015-03-23 05:51:52
Программа кодирования : mkvmerge v7.7.0 ('Six Voices') 64bit built on Feb 28 2015 23:39:33
Библиотека кодирования : libebml v1.3.1 + libmatroska v1.4.2
DURATION : 01:58:48.992000000
NUMBER_OF_FRAMES : 222781
NUMBER_OF_BYTES : 171095808
_STATISTICS_WRITING_APP : mkvmerge v7.7.0 ('Six Voices') 64bit built on Feb 28 2015 23:39:33
_STATISTICS_WRITING_DATE_UTC : 2015-03-23 05:51:52
_STATISTICS_TAGS : BPS DURATION NUMBER_OF_FRAMES NUMBER_OF_BYTES

Видео
Идентификатор : 1
Формат : AVC
Формат/Информация : Advanced Video Codec
Профиль формата : High@L4.1
Параметр CABAC формата : Да
Параметр ReFrames формата : 9 кадров
Идентификатор кодека : V_MPEG4/ISO/AVC
Продолжительность : 1 ч. 58 м.
Битрейт : 2638 Кбит/сек
Ширина : 1024 пикселя
Высота : 438 пикселей
Соотношение сторон : 2,35:1
Режим частоты кадров : Постоянный
Частота кадров : 23,976 кадра/сек
Цветовое пространство : YUV
Субдискретизация насыщенности : 4:2:0
Битовая глубина : 8 бит
Тип развёртки : Прогрессивная
Бит/(Пиксели*Кадры) : 0.245
Размер потока : 2,19 Гбайт (86%)
Заголовок : BDRip -- STarankov
Библиотека кодирования : x264 core 142 r2431 ac76440
Настройки программы : cabac=1 / ref=9 / deblock=1:-2:-2 / analyse=0x3:0x113 / me=umh / subme=10 / psy=1 / psy_rd=1.00:0.15 / mixed_ref=1 / me_range=32 / chroma_me=1 / trellis=2 / 8x8dct=1 / cqm=0 / deadzone=21,11 / fast_pskip=1 / chroma_qp_offset=-3 / threads=6 / lookahead_threads=1 / sliced_threads=0 / nr=0 / decimate=1 / interlaced=0 / bluray_compat=0 / constrained_intra=0 / bframes=8 / b_pyramid=2 / b_adapt=2 / b_bias=0 / direct=3 / weightb=1 / open_gop=0 / weightp=2 / keyint=230 / keyint_min=23 / scenecut=40 / intra_refresh=0 / rc_lookahead=40 / rc=crf / mbtree=0 / crf=19.5 / qcomp=0.60 / qpmin=0 / qpmax=69 / qpstep=4 / vbv_maxrate=40000 / vbv_bufsize=50000 / crf_max=0.0 / nal_hrd=none / filler=0 / ip_ratio=1.40 / pb_ratio=1.30 / aq=1:1.00
Язык : English
Default : Да
Forced : Нет
DURATION : 01:58:48.121000000
NUMBER_OF_FRAMES : 170904
NUMBER_OF_BYTES : 2403515426
_STATISTICS_WRITING_APP : mkvmerge v7.7.0 ('Six Voices') 64bit built on Feb 28 2015 23:39:33
_STATISTICS_WRITING_DATE_UTC : 2015-03-23 05:51:52
_STATISTICS_TAGS : BPS DURATION NUMBER_OF_FRAMES NUMBER_OF_BYTES

Аудио #1
Идентификатор : 2
Формат : AC-3
Формат/Информация : Audio Coding 3
Расширение режима : CM (complete main)
Параметр Endianness формата : Big
Идентификатор кодека : A_AC3
Продолжительность : 1 ч. 58 м.
Вид битрейта : Постоянный
Битрейт : 192 Кбит/сек
Каналы : 2 канала
Расположение каналов : Front: L R
Частота : 48,0 КГц
Битовая глубина : 16 бит
Метод сжатия : С потерями
Размер потока : 163 Мбайт (6%)
Заголовок : MVO (Paramount Channel)
Язык : Russian
Default : Да
Forced : Нет

Аудио #2
Идентификатор : 3
Формат : AC-3
Формат/Информация : Audio Coding 3
Расширение режима : CM (complete main)
Параметр Endianness формата : Big
Идентификатор кодека : A_AC3
Продолжительность : 1 ч. 58 м.
Вид битрейта : Постоянный
Битрейт : 192 Кбит/сек
Каналы : 1 канал
Расположение каналов : Front: C
Частота : 48,0 КГц
Битовая глубина : 16 бит
Метод сжатия : С потерями
Размер потока : 163 Мбайт (6%)
Заголовок : Original
Язык : English
Default : Нет
Forced : Нет



Скачать Лето.и.дым.Summer.And.Smoke.(Питер.Гленвилл).[1961.драма.мелодрама.BDRip-AVC].[MVO]+[Оригинал].torrent без регистрации
Золото ЗОЛОТАЯ РАЗДАЧА! СКАЧАННОЕ НЕ ЗАСЧИТЫВАЕТСЯ! Золото
Дата: Зарегистрирован   [ Тип: внутренний ] Как тут cкачать?
MAGNET ссылка
MAGNET ссылка


Скачать .torrent

13 KB

Статус: проверено DHT
Скачан: торрент - 102 раз, раздача полностью - 0 раз
Размер: 2,56 GB
Оценка:  - (Голосов: 0)
Поблагодарили: 1
Поделиться ссылкой на эту раздачу с друзьями:
В контактеFacebookОдноклассникиTwitterLivejournalМой МирLiveinternet
 

 
Показать сообщения:    


Вы не можете начинать темы
Вы не можете отвечать на сообщения
Вы не можете редактировать свои сообщения
Вы не можете удалять свои сообщения
Вы не можете голосовать в опросах
Вы не можете прикреплять файлы к сообщениям
Вы можете скачивать файлы