Loading...
Error

Скачать Последний человек на Земле / The Last Man on Earth (сезон 02) (Фил Лорд и др.) [2015, фантастика, комедия, WEB-DLRip] [DVO (Кубик в Кубе)]+[Eng] торрент без регистрации

 
Статистика раздачи
Размер:  7,87 GB   |    Скачан:  1988 раз
Сидов:  1  [  0 KB/s  ]  
 
Автор Сообщение

МихаНЕзатор

[] 


Последний мужик на Земле - Второй сезон
The Last Man on Earth - Second Season

Год выпуска: 2015
Страна: США
Жанр: фантастика, комедия
Продолжительность: 00:25:00
Режиссер: Фил Лорд, Кристофер Миллер, Питер Атенсио
Автор идеи: Уилл Форте / Will Forte

В ролях: Уилл Форте, Кристен Шол, Джейсон Судейкис, Клеопатра Коулман, Дженьюэри Джонс, Мэл Родригез, Мэри Стинберген, Борис Коджо и др.

Описание: Фил Миллер когда-то был просто обычным парнем, который любил свою семью и ненавидел свою работу в банке - теперь он последняя надежда человечества. Найдет ли он когда-нибудь другого живого человека на планете?

|

Перевод: Профессиональный (двухголосый закадровый) Кубик в Кубе
Озвучка: Руслан Габидуллин и Ольга Кравцова
Перевод: El_Brujo
Работа со звуком: MessaFan
Рип: ЛП

Качество: WEB-DLRip
Формат: AVI
Видео: XviD, 720x400 (16:9), 23.976 fps, ~ 2000 kbps
Аудио #1: Russian 48.0 KHz, AC3 , 6 channels, 384 Kbps |Кубик в Кубе|
Аудио #2: English 48.0 KHz, AC3 , 6 channels, 384 Kbps
Субтитры: отсутствуют

АНОНСЫ ПОПУЛЯРНЫХ РАЗДАЧ


Торрент обновлён, добавлена 18-я серия!
General
Complete name : D:\Фильмы\The Last Man on Earth Season 2 CasStudio.TV\The.Last.Man.on.Earth.s02e01.rus.eng.CasStudio.TV.avi
Format : AVI
Format/Info : Audio Video Interleave
File size : 474 MiB
Duration : 23mn 49s
Overall bit rate : 2 782 Kbps
Writing application : VirtualDubMod 1.5.10.2 (build 2540/release)
Writing library : VirtualDubMod build 2540/release
Video
ID : 0
Format : MPEG-4 Visual
Format profile : Advanced Simple@L5
Format settings, BVOP : 1
Format settings, QPel : No
Format settings, GMC : No warppoints
Format settings, Matrix : Default (MPEG)
Codec ID : XVID
Codec ID/Hint : XviD
Duration : 23mn 49s
Bit rate : 2 000 Kbps
Width : 720 pixels
Height : 400 pixels
Display aspect ratio : 16:9
Frame rate : 23.976 fps
Color space : YUV
Chroma subsampling : 4:2:0
Bit depth : 8 bits
Scan type : Progressive
Compression mode : Lossy
Bits/(Pixel*Frame) : 0.290
Stream size : 341 MiB (72%)
Writing library : XviD 73
Audio #1
ID : 1
Format : AC-3
Format/Info : Audio Coding 3
Mode extension : CM (complete main)
Format settings, Endianness : Big
Codec ID : 2000
Duration : 23mn 49s
Bit rate mode : Constant
Bit rate : 384 Kbps
Channel(s) : 6 channels
Channel positions : Front: L C R, Side: L R, LFE
Sampling rate : 48.0 KHz
Bit depth : 16 bits
Compression mode : Lossy
Stream size : 65.4 MiB (14%)
Alignment : Split accross interleaves
Interleave, duration : 42 ms (1.00 video frame)
Interleave, preload duration : 500 ms
Audio #2
ID : 2
Format : AC-3
Format/Info : Audio Coding 3
Mode extension : CM (complete main)
Format settings, Endianness : Big
Codec ID : 2000
Duration : 23mn 49s
Bit rate mode : Constant
Bit rate : 384 Kbps
Channel(s) : 6 channels
Channel positions : Front: L C R, Side: L R, LFE
Sampling rate : 48.0 KHz
Bit depth : 16 bits
Compression mode : Lossy
Stream size : 65.4 MiB (14%)
Alignment : Split accross interleaves
Interleave, duration : 42 ms (1.00 video frame)
Interleave, preload duration : 500 ms
Внимание! Раздача ведётся путём добавления новых серий; при каждом добавлении создаётся новый торрент. Чтобы начать докачку новой серии, пользователям необходимо сделать следующее:
(1) остановить скачивание,
(2) удалить старый торрент у себя из клиента (старые серии удалять не надо),
(3) скачать новый торрент и запустить его у себя в клиенте вместо старого, при этом указать клиенту путь в старую папку куда и должно происходить скачивание новых серий.
Ваш клиент при этом должен произвести хеширование (проверку) старой папки (если не производит сам - помогите ему сделать это), и будет докачивать только те серии которых у вас ещё нет. Старые серии при этом не удаляются, а продолжают раздаваться!
Если вы уже удалили старые серии, то предотвратить повторную закачку старых серий можно, отжав галочку в соответствующих местах при запуске нового торрента.



Скачать Последний.человек.на.Земле.The.Last.Man.on.Earth.(сезон.02).(Фил.Лорд.и.др.).[2015.фантастика.комедия.WEB-DLRip].[DVO.(Кубик.в.Кубе)]+[Eng].torrent без регистрации
Золото ЗОЛОТАЯ РАЗДАЧА! СКАЧАННОЕ НЕ ЗАСЧИТЫВАЕТСЯ! Золото
Дата: Зарегистрирован   [ Тип: внутренний ] Как тут cкачать?
MAGNET ссылка
MAGNET ссылка


Скачать .torrent

22 KB

Статус: проверено DHT
Скачан: торрент - 1988 раз, раздача полностью - 8 раз
Размер: 7,87 GB
Оценка:  - (Голосов: 0)
Поблагодарили: 1
Поделиться ссылкой на эту раздачу с друзьями:
В контактеFacebookОдноклассникиTwitterLivejournalМой МирLiveinternet
 

 
Показать сообщения:    


Вы не можете начинать темы
Вы не можете отвечать на сообщения
Вы не можете редактировать свои сообщения
Вы не можете удалять свои сообщения
Вы не можете голосовать в опросах
Вы не можете прикреплять файлы к сообщениям
Вы можете скачивать файлы