Loading...
Error

Скачать Грязная любовь / Dirty Love (Джон Мэллори Ашер) [2005, комедия, мелодрама, DVDRip-AVC] [DVO]+[MVO] торрент без регистрации

 
Статистика раздачи
Размер:  2,17 GB   |    Скачан:  114 раз
Сидов:  1  [  0 KB/s  ]  
 
Автор Сообщение

Marsianka

[] 

Название: Грязная любовь
Оригинальное название: Dirty Love
Год выхода: 2005
Жанр: комедия, мелодрама
Режиссер: Джон Мэллори Ашер
В ролях: Дженни МакКарти, Эдди Кэй Томас, Кармен Электра, Виктор Уэбстер, Кэм Хескин, Гильермо Диаз, Джессика Коллинз, Рени Альберт
О фильме: Брошенная и обманутая своим парнем, Ребекка, бросается на поиски приключений, горя желанием затащить в свою постель как можно большее количество мужчин… Но все оказывается не так просто. Возможно, ради счастья необязательно прыгать по чужим постелям?

Страна: США, Big Screen Entertainment Group, DEJ Productions, Double Down Entertainment, Palisades Pictures
Продолжительность: 01:26:38
Перевод: Профессиональный двухголосый, профессиональный многоголосый (украинский)

Кодек: MPEG-4 AVC
Качество: DVDRip (AVC)
Видео: 768x432, 2500 Кбит/с, 25.000 fps
Звук: Русский, английский (AC3, 6 ch, 448 Кбит/с), украинский (AC3, 2 ch, 192 Кбит/с)

Семпл
General
Unique ID : 199417797378867021515032597188531029245 (0x960678828502C78FA912A157775D84FD)
Complete name : I:Dirty.Love.2005.x264.DVDRip.(AVC).Rus.Ukr.Eng.mkv
Format : Matroska
Format version : Version 2
File size : 2.17 GiB
Duration : 1h 26mn
Overall bit rate : 3 590 Kbps
Encoded date : UTC 2015-03-22 13:04:15
Writing application : mkvmerge v4.0.0 ('The Stars were mine') сборка от Jun 6 2010 16:18:42
Writing library : libebml v1.0.0 + libmatroska v1.0.0
Attachements : cover.jpg

Video
ID : 1
Format : AVC
Format/Info : Advanced Video Codec
Format profile : High@L4.1
Format settings, CABAC : Yes
Format settings, ReFrames : 7 frames
Codec ID : V_MPEG4/ISO/AVC
Duration : 1h 26mn
Bit rate : 2 500 Kbps
Width : 768 pixels
Height : 432 pixels
Display aspect ratio : 16:9
Frame rate mode : Constant
Frame rate : 25.000 fps
Color space : YUV
Chroma subsampling : 4:2:0
Bit depth : 8 bits
Scan type : Progressive
Bits/(Pixel*Frame) : 0.301
Stream size : 1.47 GiB (68%)
Title : Dirty Love (2005) DVD-Rip AVC, 2500 kbps, 768х432
Writing library : x264 core 130 r2273 b3065e6
Encoding settings : cabac=1 / ref=7 / deblock=1:-2:-1 / analyse=0x3:0x133 / me=umh / subme=10 / psy=1 / psy_rd=1.00:0.10 / mixed_ref=1 / me_range=24 / chroma_me=1 / trellis=2 / 8x8dct=1 / cqm=0 / deadzone=21,11 / fast_pskip=0 / chroma_qp_offset=-3 / threads=6 / lookahead_threads=1 / sliced_threads=0 / nr=0 / decimate=1 / interlaced=0 / bluray_compat=0 / constrained_intra=0 / bframes=5 / b_pyramid=2 / b_adapt=2 / b_bias=0 / direct=3 / weightb=1 / open_gop=0 / weightp=2 / keyint=250 / keyint_min=23 / scenecut=40 / intra_refresh=0 / rc_lookahead=50 / rc=2pass / mbtree=1 / bitrate=2500 / ratetol=1.0 / qcomp=0.60 / qpmin=10 / qpmax=51 / qpstep=4 / cplxblur=20.0 / qblur=0.5 / ip_ratio=1.40 / aq=1:1.00
Language : English
Default : Yes
Forced : No

Audio #1
ID : 2
Format : AC-3
Format/Info : Audio Coding 3
Mode extension : CM (complete main)
Format settings, Endianness : Big
Codec ID : A_AC3
Duration : 1h 26mn
Bit rate mode : Constant
Bit rate : 448 Kbps
Channel(s) : 6 channels
Channel positions : Front: L C R, Side: L R, LFE
Sampling rate : 48.0 KHz
Bit depth : 16 bits
Compression mode : Lossy
Stream size : 278 MiB (12%)
Title : ПД
Language : Russian
Default : Yes
Forced : No

Audio #2
ID : 3
Format : AC-3
Format/Info : Audio Coding 3
Mode extension : CM (complete main)
Format settings, Endianness : Big
Codec ID : A_AC3
Duration : 1h 26mn
Bit rate mode : Constant
Bit rate : 192 Kbps
Channel(s) : 2 channels
Channel positions : Front: L R
Sampling rate : 48.0 KHz
Bit depth : 16 bits
Compression mode : Lossy
Stream size : 119 MiB (5%)
Title : ПМ (К1)
Language : Ukrainian
Default : No
Forced : No

Audio #3
ID : 4
Format : AC-3
Format/Info : Audio Coding 3
Mode extension : CM (complete main)
Format settings, Endianness : Big
Codec ID : A_AC3
Duration : 1h 26mn
Bit rate mode : Constant
Bit rate : 448 Kbps
Channel(s) : 6 channels
Channel positions : Front: L C R, Side: L R, LFE
Sampling rate : 48.0 KHz
Bit depth : 16 bits
Compression mode : Lossy
Stream size : 278 MiB (12%)
Language : English
Default : No
Forced : No

Menu
00:00:00.080 : en:Chapter 01
00:06:48.080 : en:Chapter 02
00:14:28.880 : en:Chapter 03
00:22:40.880 : en:Chapter 04
00:30:46.880 : en:Chapter 05
00:38:49.880 : en:Chapter 06
00:44:32.480 : en:Chapter 07
00:52:23.480 : en:Chapter 08
00:58:50.480 : en:Chapter 09
01:06:37.880 : en:Chapter 10
01:13:43.280 : en:Chapter 11



Скачать Грязная.любовь.Dirty.Love.(Джон.Мэллори.Ашер).[2005.комедия.мелодрама.DVDRip-AVC].[DVO]+[MVO].torrent без регистрации
Золото ЗОЛОТАЯ РАЗДАЧА! СКАЧАННОЕ НЕ ЗАСЧИТЫВАЕТСЯ! Золото
Дата: Зарегистрирован   [ Тип: внутренний ] Как тут cкачать?
MAGNET ссылка
MAGNET ссылка


Скачать .torrent

11 KB

Статус: проверено DHT
Скачан: торрент - 114 раз, раздача полностью - 11 раз
Размер: 2,17 GB
Оценка:  - (Голосов: 0)
Поблагодарили: 1
Поделиться ссылкой на эту раздачу с друзьями:
В контактеFacebookОдноклассникиTwitterLivejournalМой МирLiveinternet
 

 
Показать сообщения:    


Вы не можете начинать темы
Вы не можете отвечать на сообщения
Вы не можете редактировать свои сообщения
Вы не можете удалять свои сообщения
Вы не можете голосовать в опросах
Вы не можете прикреплять файлы к сообщениям
Вы можете скачивать файлы