Loading...
Error

Скачать На грани / The Edge (Ли Тамахори / Lee Tamahori) [1997, боевик, триллер, драма, приключения, BDRip] 3x[AVO] (А.Гаврилов, Ю.Живов, Кашкин) торрент без регистрации

 
Статистика раздачи
Размер:  2,18 GB   |    Скачан:  132 раза
Сидов:  34  [  0 KB/s  ]  
 
Автор Сообщение

leon030982

[] 

На грани / The Edge


Год выпуска: 1997
Страна: США
Жанр: боевик, триллер, драма, приключения
Продолжительность: 01:57:33
Перевод №1: Авторский (одноголосый закадровый) [А.Гаврилов]
Перевод №2: Авторский (одноголосый закадровый) [Ю.Живов]
Перевод №3: Авторский (одноголосый закадровый) [Кашкин]
Субтитры: нет

Режиссер: Ли Тамахори / Lee Tamahori

В ролях: Энтони Хопкинс, Алек Болдуин, Эль Макферсон, Хэролд Перрино, медведь Барт, Л. К. Джонс, Кэтлин Уилхойт, Марк Кили, Эли Габэй


Миллиардер Чарльз Морс отправляется со своей молодой женой, супермоделью Микки, на Аляску для фотосъемок. Модный профессиональный фотограф Роберт Грин убедил их, что именно там есть место, которое идеально подходит для съемок. В поисках они улетают намного дальше, чем предполагали.
Их маленький самолет терпит крушение при столкновении с птицами и падает в озеро. Пилот погиб, остальные спаслись… Но как выжить вдали от цивилизации? Чтобы спастись в лесу, полном диких животных, они должны полагаться только друг на друга. До спасения остается недолго… Но Чарльз начинает подозревать свою жену в связи с Робертом.




Качество: BDRip [исх. Blu-Ray Remux (1080p)]
Формат: AVI
Видео кодек: XvID
Аудио кодек: AC3
Видео: 720x304 (2.37:1), 23.976 fps, XviD build 73 ~1691 kbps avg, 0.32 bit/pixel
Аудио #1: 48 kHz, AC3 Dolby Digital, 3/2 (L,C,R,l,r) + LFE ch, ~384.00 kbps avg (Гаврилов)
Аудио #2: 48 kHz, AC3 Dolby Digital, 3/2 (L,C,R,l,r) + LFE ch, ~384.00 kbps avg (Живов)
Аудио #3: 48 kHz, AC3 Dolby Digital, 2/0 (L,R) ch, ~192.00 kbps avg (Кашкин)

Автор рипа -- deadmauVlad

Код:

General
Complete name                    : E:\INTERNET\Na.Grani.3xA.1997.BDRip.Deadmauvlad.2.18.GB.avi
Format                           : AVI
Format/Info                      : Audio Video Interleave
Format profile                   : OpenDML
File size                        : 2.18 GiB
Duration                         : 1h 57mn
Overall bit rate                 : 2 658 Kbps
Movie name                       : Na.Grani.3xA.1997.BDRip.Deadmauvlad.2.18.GB
Director                         : Deadmauvlad
Genre                            : Боевик
Writing application              : VirtualDubMod 1.5.10.3 | www.virtualdub-fr.org || (build 2550/release)
Original source form/Name        : Фильм
Copyright                        : Deadmauvlad

Video
ID                               : 0
Format                           : MPEG-4 Visual
Format profile                   : Advanced Simple@L5
Format settings, BVOP            : 1
Format settings, QPel            : No
Format settings, GMC             : No warppoints
Format settings, Matrix          : Custom
Codec ID                         : XVID
Codec ID/Hint                    : XviD
Duration                         : 1h 57mn
Bit rate                         : 1 674 Kbps
Width                            : 720 pixels
Height                           : 304 pixels
Display aspect ratio             : 2.35:1
Frame rate                       : 23.976 fps
Color space                      : YUV
Chroma subsampling               : 4:2:0
Bit depth                        : 8 bits
Scan type                        : Progressive
Compression mode                 : Lossy
Bits/(Pixel*Frame)               : 0.319
Stream size                      : 1.37 GiB (63%)
Writing library                  : XviD 73

Audio #1
ID                               : 1
Format                           : AC-3
Format/Info                      : Audio Coding 3
Mode extension                   : CM (complete main)
Codec ID                         : 2000
Duration                         : 1h 57mn
Bit rate mode                    : Constant
Bit rate                         : 384 Kbps
Channel(s)                       : 6 channels
Channel positions                : Front: L C R, Side: L R, LFE
Sampling rate                    : 48.0 KHz
Bit depth                        : 16 bits
Compression mode                 : Lossy
Stream size                      : 323 MiB (14%)
Alignment                        : Split accross interleaves
Interleave, duration             : 42 ms (1.00 video frame)
Interleave, preload duration     : 500 ms

Audio #2
ID                               : 2
Format                           : AC-3
Format/Info                      : Audio Coding 3
Mode extension                   : CM (complete main)
Codec ID                         : 2000
Duration                         : 1h 57mn
Bit rate mode                    : Constant
Bit rate                         : 384 Kbps
Channel(s)                       : 6 channels
Channel positions                : Front: L C R, Side: L R, LFE
Sampling rate                    : 48.0 KHz
Bit depth                        : 16 bits
Compression mode                 : Lossy
Stream size                      : 323 MiB (14%)
Alignment                        : Split accross interleaves
Interleave, duration             : 42 ms (1.00 video frame)
Interleave, preload duration     : 500 ms

Audio #3
ID                               : 3
Format                           : AC-3
Format/Info                      : Audio Coding 3
Mode extension                   : CM (complete main)
Codec ID                         : 2000
Duration                         : 1h 57mn
Bit rate mode                    : Constant
Bit rate                         : 192 Kbps
Channel(s)                       : 2 channels
Channel positions                : Front: L R
Sampling rate                    : 48.0 KHz
Bit depth                        : 16 bits
Compression mode                 : Lossy
Stream size                      : 161 MiB (7%)
Alignment                        : Split accross interleaves
Interleave, duration             : 42 ms (1.00 video frame)
Interleave, preload duration     : 500 ms




Скачать На.грани.The.Edge.(Ли.Тамахори.Lee.Tamahori).[1997.боевик.триллер.драма.приключения.BDRip].3x[AVO].(А.Гаврилов.Ю.Живов.Кашкин).torrent без регистрации
Золото ЗОЛОТАЯ РАЗДАЧА! СКАЧАННОЕ НЕ ЗАСЧИТЫВАЕТСЯ! Золото
Дата: Зарегистрирован   [ Тип: внутренний ] Как тут cкачать?
MAGNET ссылка
MAGNET ссылка


Скачать .torrent

11 KB

Статус: проверено DHT
Скачан: торрент - 132 раз, раздача полностью - 15285 раз
Размер: 2,18 GB
Оценка:  - (Голосов: 0)
Поблагодарили: 4
Поделиться ссылкой на эту раздачу с друзьями:
В контактеFacebookОдноклассникиTwitterLivejournalМой МирLiveinternet
 

 
Показать сообщения:    


Вы не можете начинать темы
Вы не можете отвечать на сообщения
Вы не можете редактировать свои сообщения
Вы не можете удалять свои сообщения
Вы не можете голосовать в опросах
Вы не можете прикреплять файлы к сообщениям
Вы можете скачивать файлы