Loading...
Error

Скачать Опасные умы / Dangerous Minds (Джон Н. Смит) [1995, драма, криминал, триллер, экранизация, WEB-DLRip-AVC] [MVO]+[AVO (А.Гаврилов, Ю.Живов)]x2 торрент без регистрации

 
Статистика раздачи
Размер:  2,17 GB   |    Скачан:  126 раз
Сидов:  1  [  0 KB/s  ]  
 
Автор Сообщение

Marsianka

[] 

Название: Опасные умы (Опасные мысли)
Оригинальное название: Dangerous minds
Год выпуска: 1995
Жанр: драма, криминал, триллер, экранизация
Выпущено: США, Hollywood Pictures, Don Simpson/Jerry Bruckheimer Films
Продолжительность: 01:38:50
Перевод: профессиональный (многоголосый, закадровый), авторский (одноголосый, закадровый)
Субтитры: отсутствуют

Режиссер: Джон Н. Смит

В ролях: Мишель Пфайффер, Джордж Дзундза, Бруклин Харрис, Реноли Сантьяго, Уэйд Домингес, Кортни Б. Вэнс, Робин Бартлетт, Беатрис Уинд, Джон Невилл, Лоррейн Туссен

О фильме: Покинув элитные части морской пехоты, Лу - Энн Джонсон выбирает для себя странную профессию: железная леди становится учительницей английского языка в колледже. Но навыки армейской службы сразу же пригодились ей на новом поприще.Ведь класс, в который попала Лу - Энн, мало чем отличался от поля боя, а ученики оказались очень уж похожи на головорезов. Учительнице специального назначения не оставалось ничего другого, как перейти в решительное наступление... Рональд Басс написал сценарий по книге Луэнны Джонсон "Моя команда домашнюю работу не делает".



Качество: WEB-DLRip-AVC
Видео: AVC, 1024x556 (16:9), 23.976 fps, 1 884 Kbps (0.138 bit/pixel)
Аудио #1: AC-3, 48.0 KHz, 6 ch, 448 Kbps, CBR (Russian) - многоголосый
Аудио #2: AC-3, 48.0 KHz, 6 ch, 448 Kbps, CBR (Russian) - А.Гаврилов
Аудио #3: AC-3, 48.0 KHz, 6 ch, 384 Kbps, CBR (Russian) - Ю.Живов

Формат : Matroska
Версия формата : Version 2
Размер файла : 2,17 Гбайт
Продолжительность : 1 ч. 38 м.
Общий поток : 3148 Кбит/сек
Дата кодирования : UTC 2015-03-29 10:46:52
Программа кодирования : mkvmerge v5.3.0 ('I could have danced') built on Feb 9 2012 10:38:07
Библиотека кодирования : libebml v1.2.3 + libmatroska v1.3.0
Attachment : Yes

Видео
Идентификатор : 1
Формат : AVC
Формат/Информация : Advanced Video Codec
Профиль формата : High@L4.1
Параметр CABAC формата : Да
Параметр ReFrames формата : 10 кадров
Идентификатор кодека : V_MPEG4/ISO/AVC
Продолжительность : 1 ч. 38 м.
Битрейт : 1884 Кбит/сек
Ширина : 1024 пикселя
Высота : 556 пикселей
Соотношение сторон : 1,85:1
Режим частоты кадров : Постоянный
Частота кадров : 23,976 кадра/сек
Цветовое пространство : YUV
Субдискретизация насыщенности : 4:2:0
Битовая глубина : 8 бит
Тип развёртки : Прогрессивная
Бит/(Пиксели*Кадры) : 0.138
Размер потока : 1,25 Гбайт (57%)
Библиотека кодирования : x264 core 142 r2431 ac76440
Настройки программы : cabac=1 / ref=10 / deblock=1:-3:-3 / analyse=0x3:0x133 / me=umh / subme=10 / psy=1 / psy_rd=1.00:0.00 / mixed_ref=1 / me_range=32 / chroma_me=1 / trellis=2 / 8x8dct=1 / cqm=0 / deadzone=21,11 / fast_pskip=1 / chroma_qp_offset=-2 / threads=12 / lookahead_threads=2 / sliced_threads=0 / nr=0 / decimate=0 / interlaced=0 / bluray_compat=0 / constrained_intra=0 / bframes=8 / b_pyramid=2 / b_adapt=2 / b_bias=0 / direct=3 / weightb=1 / open_gop=0 / weightp=2 / keyint=240 / keyint_min=23 / scenecut=40 / intra_refresh=0 / rc=2pass / mbtree=0 / bitrate=1884 / ratetol=1.0 / qcomp=0.60 / qpmin=0 / qpmax=69 / qpstep=4 / cplxblur=20.0 / qblur=0.5 / ip_ratio=1.40 / pb_ratio=1.30 / aq=1:1.00
Язык : English
Default : Да
Forced : Нет

Аудио #1
Идентификатор : 2
Формат : AC-3
Формат/Информация : Audio Coding 3
Расширение режима : CM (complete main)
Параметр Endianness формата : Big
Идентификатор кодека : A_AC3
Продолжительность : 1 ч. 38 м.
Вид битрейта : Постоянный
Битрейт : 448 Кбит/сек
Каналы : 6 каналов
Расположение каналов : Front: L C R, Side: L R, LFE
Частота : 48,0 КГц
Битовая глубина : 16 бит
Метод сжатия : С потерями
Задержка видео : 1 с. 200 мс.
Размер потока : 317 Мбайт (14%)
Заголовок : Многоголосый
Язык : Russian
Default : Да
Forced : Нет

Аудио #2
Идентификатор : 3
Формат : AC-3
Формат/Информация : Audio Coding 3
Расширение режима : CM (complete main)
Параметр Endianness формата : Big
Идентификатор кодека : A_AC3
Продолжительность : 1 ч. 38 м.
Вид битрейта : Постоянный
Битрейт : 448 Кбит/сек
Каналы : 6 каналов
Расположение каналов : Front: L C R, Side: L R, LFE
Частота : 48,0 КГц
Битовая глубина : 16 бит
Метод сжатия : С потерями
Задержка видео : 1 с. 0 мс.
Размер потока : 317 Мбайт (14%)
Заголовок : Авторский А.Гаврилов
Язык : Russian
Default : Нет
Forced : Нет

Аудио #3
Идентификатор : 4
Формат : AC-3
Формат/Информация : Audio Coding 3
Расширение режима : CM (complete main)
Параметр Endianness формата : Big
Идентификатор кодека : A_AC3
Продолжительность : 1 ч. 38 м.
Вид битрейта : Постоянный
Битрейт : 384 Кбит/сек
Каналы : 6 каналов
Расположение каналов : Front: L C R, Side: L R, LFE
Частота : 48,0 КГц
Битовая глубина : 16 бит
Метод сжатия : С потерями
Задержка видео : 2 мс.
Размер потока : 271 Мбайт (12%)
Заголовок : Авторский Ю.Живов
Язык : Russian
Default : Нет
Forced : Нет



Скачать Опасные.умы.Dangerous.Minds.(Джон.Н.Смит).[1995.драма.криминал.триллер.экранизация.WEB-DLRip-AVC].[MVO]+[AVO.(А.Гаврилов.Ю.Живов)]x2.torrent без регистрации
Золото ЗОЛОТАЯ РАЗДАЧА! СКАЧАННОЕ НЕ ЗАСЧИТЫВАЕТСЯ! Золото
Дата: Зарегистрирован   [ Тип: внутренний ] Как тут cкачать?
MAGNET ссылка
MAGNET ссылка


Скачать .torrent

11 KB

Статус: проверено DHT
Скачан: торрент - 126 раз, раздача полностью - 4 раз
Размер: 2,17 GB
Оценка:  - (Голосов: 0)
Поблагодарили: 1
Поделиться ссылкой на эту раздачу с друзьями:
В контактеFacebookОдноклассникиTwitterLivejournalМой МирLiveinternet
 

 
Показать сообщения:    


Вы не можете начинать темы
Вы не можете отвечать на сообщения
Вы не можете редактировать свои сообщения
Вы не можете удалять свои сообщения
Вы не можете голосовать в опросах
Вы не можете прикреплять файлы к сообщениям
Вы можете скачивать файлы