Loading...
Error

Скачать Свидетель убийства / Witness To Murder (Рой Роулэнд) [1954, фильм-нуар, триллер, драма, криминал, BDRip-AVC] [VO]+[Sub] торрент без регистрации

 
Статистика раздачи
Размер:  1,64 GB   |    Скачан:  124 раза
Сидов:  1  [  0 KB/s  ]  
 
Автор Сообщение

Marsianka

[] 

Информация о фильме
Название: Свидетель убийства
Оригинальное название: Witness To Murder
Год выпуска: 1954
Жанр: фильм-нуар, триллер, драма, криминал
Режиссер: Рой Роулэнд
В ролях: Барбара Стэнвик, Джордж Сандерс, Гэри Меррилл, Джесси Уайт, Гарри Шэннон, Клер Карлтон, Льюис Мартин, Дик Эллиотт, Гарри Тайлер, Хуанита Мур

О фильме: Действие картины происходит в Лос-Анджелесе. Однажды Шерил Дрэйпер просыпается среди ночи в своей квартире, встаёт из кровати, чтобы закрыть окно, и в этот момент видит, как в доме напротив некий импозантный мужчина, далее известный как Альберт Рихтер, душит насмерть молодую женщину. Шерил немедленно звонит в полицию, и вскоре лейтенант полиции Лоренс Мэтьюз и сержант Эдди Винсент приезжают по указанному ей адресу. Заметив их, Рихтер успевает спрятать тело убитой в соседней квартире, где идёт ремонт, переодеться и сделать вид, что спит. При осмотре квартиры Рихтеру удаётся отвлечь внимание детективов от оставшихся улик — разорванной занавески и упавшей на ковёр женской серёжки. В итоге, не найдя ничего подозрительного, Мэтьюз приходит к Шерил, уверяя её, что вся сцена с убийством, вероятно, привиделась ей во сне, но она настаивает на том, что видела всё наяву...



Страна: США
Студия: Chester Erskine Productions
Продолжительность: 01:21:49
Перевод: Любительский одноголосый

Файл
Кодек: x264
Качество: BDRip (AVC)
Видео: MPEG-4 AVC, 2488 Кбит/с, 1008x576, 23.976 кадр/с
Аудио #1: Русский (AC3, 2 ch, 192 Кбит/с) / Любительский одноголосый (minyaev)
Аудио #2: Английский (AC3, 2 ch, 192 Кбит/с)
Субтитры: Русские
Семпл

За исходник - BDRemux 1080p - DarLeg
За постер спасибо Media-Art-Club
x264 [info]: frame I:807 Avg QP:17.83 size: 68797
x264 [info]: frame P:26443 Avg QP:21.13 size: 27661
x264 [info]: frame B:90446 Avg QP:22.41 size: 8174

=================================

Уникальный идентификатор : 180010740758756425574942067387275807632 (0x876CCEBE78A867E7BB880A7772E60B90)
Полное имя : E:MCSvidetel.ubiystwa.1954.x264.BDRip(AVC)-MediaClubSvidetel.ubiystwa.1954.x264.BDRip(AVC)-MediaClub.mkv
Формат : Matroska
Версия формата : Version 4 / Version 2
Размер файла : 1,64 Гбайт
Продолжительность : 1 ч. 21 м.
Общий поток : 2874 Кбит/сек
Название фильма : -= Release MediaClub =-
Дата кодирования : UTC 2015-03-27 17:47:39
Программа кодирования : mkvmerge v7.3.0 ('Nouages') 64bit built on Oct 22 2014 18:53:34
Библиотека кодирования : libebml v1.3.0 + libmatroska v1.4.1
DURATION : 01:19:14.443000000
NUMBER_OF_FRAMES : 1020
NUMBER_OF_BYTES : 73063
_STATISTICS_WRITING_APP : mkvmerge v7.3.0 ('Nouages') 64bit built on Oct 22 2014 18:53:34
_STATISTICS_WRITING_DATE_UTC : 2015-03-27 17:47:39
_STATISTICS_TAGS : BPS DURATION NUMBER_OF_FRAMES NUMBER_OF_BYTES
Attachment : Yes

Видео
Идентификатор : 1
Формат : AVC
Формат/Информация : Advanced Video Codec
Профиль формата : High@L4.1
Параметр CABAC формата : Да
Параметр ReFrames формата : 12 кадров
Идентификатор кодека : V_MPEG4/ISO/AVC
Продолжительность : 1 ч. 21 м.
Битрейт : 2488 Кбит/сек
Ширина : 1008 пикселей
Высота : 576 пикселей
Соотношение сторон : 16:9
Режим частоты кадров : Постоянный
Частота кадров : 23,976 кадра/сек
Цветовое пространство : YUV
Субдискретизация насыщенности : 4:2:0
Битовая глубина : 8 бит
Тип развёртки : Прогрессивная
Бит/(Пиксели*Кадры) : 0.179
Размер потока : 1,39 Гбайт (85%)
Заголовок : Svidetel.ubiystwa.1954.x264.BDRip(AVC)-neni
Библиотека кодирования : x264 core 142 r2409+42 04be48a tMod [8-bit@4:2:0 X86_64]
Настройки программы : cabac=1 / ref=12 / deblock=1:-3:-3 / analyse=0x3:0x133 / me=umh / subme=11 / psy=1 / fade_compensate=0.00 / psy_rd=1.00:0.33 / mixed_ref=1 / me_range=48 / chroma_me=1 / trellis=2 / 8x8dct=1 / cqm=0 / deadzone=21,11 / fast_pskip=0 / chroma_qp_offset=-4 / threads=9 / lookahead_threads=1 / sliced_threads=0 / nr=0 / decimate=0 / interlaced=0 / bluray_compat=0 / constrained_intra=0 / fgo=0 / bframes=8 / b_pyramid=2 / b_adapt=2 / b_bias=0 / direct=3 / weightb=1 / open_gop=0 / weightp=2 / keyint=240 / keyint_min=23 / scenecut=40 / intra_refresh=0 / rc=2pass / mbtree=0 / bitrate=2488 / ratetol=1.0 / qcomp=0.60 / qpmin=0:0:0 / qpmax=69:69:69 / qpstep=4 / cplxblur=20.0 / qblur=0.5 / ip_ratio=1.40 / pb_ratio=1.30 / aq=2:1.00 / aq-sensitivity=10.00 / aq-factor=1.00:1.00:1.00 / aq2=0 / aq3=0
Язык : English
Default : Да
Forced : Нет
DURATION : 01:21:48.904000000
NUMBER_OF_FRAMES : 117696
NUMBER_OF_BYTES : 1526296975
_STATISTICS_WRITING_APP : mkvmerge v7.3.0 ('Nouages') 64bit built on Oct 22 2014 18:53:34
_STATISTICS_WRITING_DATE_UTC : 2015-03-27 17:47:39
_STATISTICS_TAGS : BPS DURATION NUMBER_OF_FRAMES NUMBER_OF_BYTES

Аудио #1
Идентификатор : 2
Формат : AC-3
Формат/Информация : Audio Coding 3
Расширение режима : CM (complete main)
Параметр Endianness формата : Big
Идентификатор кодека : A_AC3
Продолжительность : 1 ч. 21 м.
Вид битрейта : Постоянный
Битрейт : 192 Кбит/сек
Каналы : 2 канала
Расположение каналов : Front: L R
Частота : 48,0 КГц
Битовая глубина : 16 бит
Метод сжатия : С потерями
Размер потока : 112 Мбайт (7%)
Заголовок : • Русский (AC3, 2 ch, 192 Кбит/с) - ЛО (minyaev)
Язык : Russian
Default : Да
Forced : Да

Аудио #2
Идентификатор : 3
Формат : AC-3
Формат/Информация : Audio Coding 3
Расширение режима : CM (complete main)
Параметр Endianness формата : Big
Идентификатор кодека : A_AC3
Продолжительность : 1 ч. 21 м.
Вид битрейта : Постоянный
Битрейт : 192 Кбит/сек
Каналы : 2 канала
Расположение каналов : Front: L R
Частота : 48,0 КГц
Битовая глубина : 16 бит
Метод сжатия : С потерями
Размер потока : 112 Мбайт (7%)
Заголовок : • Английский (AC3, 2 ch, 192 Кбит/с) - (Original from BD)
Язык : English
Default : Нет
Forced : Нет

Текст
Идентификатор : 4
Формат : UTF-8
Идентификатор кодека : S_TEXT/UTF8
Идентификатор кодека/Информация : UTF-8 Plain Text
Заголовок : minyaev
Язык : Russian
Default : Нет
Forced : Нет

Меню
00:00:00.000 : en:Chapter 01
00:13:16.337 : en:Chapter 02
00:24:40.520 : en:Chapter 03
00:34:16.471 : en:Chapter 04
00:44:48.227 : en:Chapter 05
00:53:22.949 : en:Chapter 06
01:01:13.086 : en:Chapter 07
01:08:52.128 : en:Chapter 08
Релиз от: Rip by



Скачать Свидетель.убийства.Witness.To.Murder.(Рой.Роулэнд).[1954.фильм-нуар.триллер.драма.криминал.BDRip-AVC].[VO]+[Sub].torrent без регистрации
Золото ЗОЛОТАЯ РАЗДАЧА! СКАЧАННОЕ НЕ ЗАСЧИТЫВАЕТСЯ! Золото
Дата: Зарегистрирован   [ Тип: внутренний ] Как тут cкачать?
MAGNET ссылка
MAGNET ссылка


Скачать .torrent

17 KB

Статус: проверено DHT
Скачан: торрент - 124 раз, раздача полностью - 15 раз
Размер: 1,64 GB
Оценка:  - (Голосов: 0)
Поблагодарили: 1
Поделиться ссылкой на эту раздачу с друзьями:
В контактеFacebookОдноклассникиTwitterLivejournalМой МирLiveinternet
 

 
Показать сообщения:    


Вы не можете начинать темы
Вы не можете отвечать на сообщения
Вы не можете редактировать свои сообщения
Вы не можете удалять свои сообщения
Вы не можете голосовать в опросах
Вы не можете прикреплять файлы к сообщениям
Вы можете скачивать файлы