Loading...
Error

Скачать Пропавший без вести / The Missing (сезон 01) (Том Шенклэнд) [2014, драма, криминал, детектив, BDRip] [720p] [MVO (Amedia)] торрент без регистрации

 
Статистика раздачи
Размер:  29,08 GB   |    Скачан:  133 раза
Сидов:  1  [  0 KB/s  ]  
 
Автор Сообщение

МихаНЕзатор

[] 



◈ Пропавший без вести ◈

Информация о фильме:
✦ Название: Пропавший без вести
✦ Оригинальное название: The Missing
✦ Год выхода: 2014
✦ Жанр: драма, криминал, детектив
✦ Режиссер: Том Шенклэнд

✦ В ролях: Джеймс Несбитт, Фрэнсис О`Коннор, Джейсон Флеминг, Анастасия Хилли, Макс Роттсли, Сэм Адевунми, Себастьян Бэдэрэу, Оливье Бонжур, Оливье Бони, Драгош Букур, Дидье Колфс, Донья Кролл, Абигейл Дэвис, Жозефина де Ла Бом, Фиона Гиллис и др.

Описание фильма: Во время чемпионата мира по футболу 2006 года британская семья теряет во Франции своего маленького сына посреди футбольной вакханалии, которая творилась на улицах по случаю финала. Это разрушает их брак, и вскоре жена находит себе нового мужчину. Спустя восемь лет отец пропавшего мальчика нанимает французского детектива, чтобы возобновить поиски, — появились доказательства того, что ребенок все еще жив.



✦ Страна: Великобритания, США
✦ Продолжительность: ~ 00:58:00 серия
✦ Перевод: профессиональный (многоголосый, закадровый) | Amedia



Информация о файле:
✦ Формат: MKV
✦ Качество: BDRip 720p
✦ Видео: h.264, ~ 7300 kbps, 1280x720
✦ Аудио Rus: AC3, 48 kHz, 2 ch, 192 kbps
✦ Аудио Eng: AC3, 48 kHz, 2 ch, 640 kbps
✦ Субтитры: Русские, английские

АНОНСЫ ПОПУЛЯРНЫХ РАЗДАЧ


Торрент обновлён, добавлена 8-я серия!
рип: SA89
синхронизация звука и субтитров: qqss44
субтитры: sergey84qq
Общее
Уникальный идентификатор : 222674626022523253898282884483655780453 (0xA78592B0DCAF24419879B666F4ADC865)
Формат : Matroska
Версия формата : Version 2
Размер файла : 3,38 Гбайт
Продолжительность : 58 м.
Общий поток : 8199 Кбит/сек
Дата кодирования : UTC 2015-03-30 16:14:43
Программа кодирования : mkvmerge v7.8.0 ('River Man') 64bit built on Mar 27 2015 16:31:37
Библиотека кодирования : libebml v1.3.1 + libmatroska v1.4.2
DURATION : 00:57:30.639000000
NUMBER_OF_FRAMES : 514
NUMBER_OF_BYTES : 16200
_STATISTICS_WRITING_APP : mkvmerge v7.8.0 ('River Man') 64bit built on Mar 27 2015 16:31:37
_STATISTICS_WRITING_DATE_UTC : 2015-03-30 16:14:43
_STATISTICS_TAGS : BPS DURATION NUMBER_OF_FRAMES NUMBER_OF_BYTES

Видео
Идентификатор : 1
Формат : AVC
Формат/Информация : Advanced Video Codec
Профиль формата : High@L4.1
Параметр CABAC формата : Да
Параметр ReFrames формата : 9 кадров
Идентификатор кодека : V_MPEG4/ISO/AVC
Продолжительность : 58 м.
Битрейт : 7204 Кбит/сек
Ширина : 1280 пикселей
Высота : 720 пикселей
Соотношение сторон : 16:9
Режим частоты кадров : Постоянный
Частота кадров : 25,000 кадров/сек
Цветовое пространство : YUV
Субдискретизация насыщенности : 4:2:0
Битовая глубина : 8 бит
Тип развёртки : Прогрессивная
Бит/(Пиксели*Кадры) : 0.313
Размер потока : 2,97 Гбайт (88%)
Библиотека кодирования : x264 core 142 r2479 dd79a61
Настройки программы : cabac=1 / ref=9 / deblock=1:-3:-3 / analyse=0x3:0x113 / me=umh / subme=10 / psy=1 / psy_rd=1.00:0.00 / mixed_ref=1 / me_range=24 / chroma_me=1 / trellis=2 / 8x8dct=1 / cqm=0 / deadzone=21,11 / fast_pskip=1 / chroma_qp_offset=-2 / threads=6 / lookahead_threads=1 / sliced_threads=0 / nr=0 / decimate=1 / interlaced=0 / bluray_compat=0 / constrained_intra=0 / bframes=8 / b_pyramid=2 / b_adapt=2 / b_bias=0 / direct=1 / weightb=1 / open_gop=0 / weightp=2 / keyint=250 / keyint_min=25 / scenecut=40 / intra_refresh=0 / rc_lookahead=60 / rc=crf / mbtree=0 / crf=15.0 / qcomp=0.60 / qpmin=0 / qpmax=69 / qpstep=4 / vbv_maxrate=62500 / vbv_bufsize=78125 / crf_max=0.0 / nal_hrd=none / filler=0 / ip_ratio=1.40 / pb_ratio=1.30 / aq=1:0.80
Default : Да
Forced : Нет
Основные цвета : BT.709
Характеристики трансфера : BT.709
Коэффициенты матрицы : BT.709
colour_range : Limited
DURATION : 00:58:57.960000000
NUMBER_OF_FRAMES : 88449
NUMBER_OF_BYTES : 3257234056
_STATISTICS_WRITING_APP : mkvmerge v7.8.0 ('River Man') 64bit built on Mar 27 2015 16:31:37
_STATISTICS_WRITING_DATE_UTC : 2015-03-30 16:14:43
_STATISTICS_TAGS : BPS DURATION NUMBER_OF_FRAMES NUMBER_OF_BYTES

Аудио #1
Идентификатор : 2
Формат : AC-3
Формат/Информация : Audio Coding 3
Расширение режима : CM (complete main)
Параметр Endianness формата : Big
Идентификатор кодека : A_AC3
Продолжительность : 58 м.
Вид битрейта : Постоянный
Битрейт : 192 Кбит/сек
Каналы : 2 канала
Расположение каналов : Front: L R
Частота : 48,0 КГц
Битовая глубина : 16 бит
Метод сжатия : С потерями
Задержка видео : -80 мс.
Размер потока : 81,0 Мбайт (2%)
Язык : Russian
Default : Да
Forced : Нет
DURATION : 00:58:57.984000000
NUMBER_OF_FRAMES : 110562
NUMBER_OF_BYTES : 283038720
_STATISTICS_WRITING_APP : mkvmerge v7.8.0 ('River Man') 64bit built on Mar 27 2015 16:31:37
_STATISTICS_WRITING_DATE_UTC : 2015-03-30 16:14:43
_STATISTICS_TAGS : BPS DURATION NUMBER_OF_FRAMES NUMBER_OF_BYTES

Аудио #2
Идентификатор : 3
Формат : AC-3
Формат/Информация : Audio Coding 3
Расширение режима : CM (complete main)
Параметр Endianness формата : Big
Идентификатор кодека : A_AC3
Продолжительность : 58 м.
Вид битрейта : Постоянный
Битрейт : 640 Кбит/сек
Каналы : 2 канала
Расположение каналов : Front: L R
Частота : 48,0 КГц
Битовая глубина : 16 бит
Метод сжатия : С потерями
Задержка видео : -5 мс.
Размер потока : 270 Мбайт (8%)
Язык : English
Default : Нет
Forced : Нет

Текст #1
Идентификатор : 4
Формат : UTF-8
Идентификатор кодека : S_TEXT/UTF8
Идентификатор кодека/Информация : UTF-8 Plain Text
Язык : Russian
Default : Нет
Forced : Нет

Текст #2
Идентификатор : 5
Формат : UTF-8
Идентификатор кодека : S_TEXT/UTF8
Идентификатор кодека/Информация : UTF-8 Plain Text
Язык : English
Default : Нет
Forced : Нет

Меню
00:00:00.000 : :Chapter 1
00:14:57.320 : :Chapter 2
00:29:25.880 : :Chapter 3
00:44:45.040 : :Chapter 4
00:58:10.440 : :Chapter 5



Скачать Пропавший.без.вести.The.Missing.(сезон.01).(Том.Шенклэнд).[2014.драма.криминал.детектив.BDRip].[720p].[MVO.(Amedia)].torrent без регистрации
Золото ЗОЛОТАЯ РАЗДАЧА! СКАЧАННОЕ НЕ ЗАСЧИТЫВАЕТСЯ! Золото
Дата: Зарегистрирован   [ Тип: внутренний ] Как тут cкачать?
MAGNET ссылка
MAGNET ссылка


Скачать .torrent

147 KB

Статус: проверено DHT
Скачан: торрент - 133 раз, раздача полностью - 10 раз
Размер: 29,08 GB
Оценка:  - (Голосов: 0)
Поблагодарили: 0
Поделиться ссылкой на эту раздачу с друзьями:
В контактеFacebookОдноклассникиTwitterLivejournalМой МирLiveinternet
 

 
Показать сообщения:    


Вы не можете начинать темы
Вы не можете отвечать на сообщения
Вы не можете редактировать свои сообщения
Вы не можете удалять свои сообщения
Вы не можете голосовать в опросах
Вы не можете прикреплять файлы к сообщениям
Вы можете скачивать файлы