Loading...
Error

Скачать Пропавший без вести / The Missing (сезон 01) (Том Шенклэнд) [2014, драма, криминал, детектив, BDRip] [MVO (Amedia)]+[Eng]+[Sub Rus, Eng] торрент без регистрации

 
Статистика раздачи
Размер:  7,02 GB   |    Скачан:  137 раз

Полного источника не было: 24 минуты

 
Автор Сообщение

МихаНЕзатор

[] 



◈ Пропавший без вести ◈

Информация о фильме:
✦ Название: Пропавший без вести
✦ Оригинальное название: The Missing
✦ Год выхода: 2014
✦ Жанр: Драма, криминал, детектив
✦ Режиссер: Том Шенклэнд

✦ В ролях: Джеймс Несбитт, Фрэнсис О`Коннор, Джейсон Флеминг, Анастасия Хилли, Макс Роттсли, Сэм Адевунми, Себастьян Бэдэрэу, Оливье Бонжур, Оливье Бони, Драгош Букур, Дидье Колфс, Донья Кролл, Абигейл Дэвис, Жозефина де Ла Бом, Фиона Гиллис и др.

Описание фильма: Во время чемпионата мира по футболу 2006 года британская семья теряет во Франции своего маленького сына посреди футбольной вакханалии, которая творилась на улицах по случаю финала. Это разрушает их брак, и вскоре жена находит себе нового мужчину. Спустя восемь лет отец пропавшего мальчика нанимает французского детектива, чтобы возобновить поиски, — появились доказательства того, что ребенок все еще жив.



✦ Страна: Великобритания, США
✦ Продолжительность: ~ 00:58:00 серия
✦ Перевод: профессиональный (многоголосый, закадровый) | Amedia



Информация о файле:
✦ Формат: AVI
✦ Качество: BDRip
✦ Видео: XviD, ~ 1750 kbps, 720x400
✦ Аудио Rus: AC3, 48 kHz, 2 ch, 192 kbps
✦ Аудио Eng: AC3, 48 kHz, 2 ch, 192 kbps
✦ Субтитры: Русские, английские

АНОНСЫ ПОПУЛЯРНЫХ РАЗДАЧ


Торрент обновлён, добавлена 8-я серия!
рип: qqss44
синхронизация звука и субтитров: qqss44
субтитры: sergey84qq
Общее
Формат : AVI
Формат/Информация : Audio Video Interleave
Размер файла : 898 Мбайт
Продолжительность : 58 м.
Общий поток : 2129 Кбит/сек
Программа кодирования : VirtualDubMod 1.5.10.3 | www.virtualdub-fr.org || (build 2550/release)
Библиотека кодирования : VirtualDubMod build 2550/release

Видео
Идентификатор : 0
Формат : MPEG-4 Visual
Профиль формата : Advanced Simple@L5
Параметр BVOP формата : 1
Параметр QPel формата : Нет
Параметр GMC формата : Без точки перехода
Параметр матрицы формата : Default (MPEG)
Идентификатор кодека : XVID
Идентификатор кодека/Подсказка : XviD
Продолжительность : 58 м.
Битрейт : 1731 Кбит/сек
Ширина : 720 пикселей
Высота : 400 пикселей
Соотношение сторон : 16:9
Частота кадров : 25,000 кадров/сек
Цветовое пространство : YUV
Субдискретизация насыщенности : 4:2:0
Битовая глубина : 8 бит
Тип развёртки : Прогрессивная
Метод сжатия : С потерями
Бит/(Пиксели*Кадры) : 0.240
Размер потока : 730 Мбайт (81%)
Библиотека кодирования : XviD 73

Аудио #1
Идентификатор : 1
Формат : AC-3
Формат/Информация : Audio Coding 3
Расширение режима : CM (complete main)
Параметр Endianness формата : Big
Идентификатор кодека : 2000
Продолжительность : 58 м.
Вид битрейта : Постоянный
Битрейт : 192 Кбит/сек
Каналы : 2 канала
Расположение каналов : Front: L R
Частота : 48,0 КГц
Битовая глубина : 16 бит
Метод сжатия : С потерями
Размер потока : 81,0 Мбайт (9%)
Выравнивание : Разделение по промежуткам
Продолжительность промежутка : 40 мс. (1,00 видеокадр)
Время предзагрузки промежутка : 500 мс.

Аудио #2
Идентификатор : 2
Формат : AC-3
Формат/Информация : Audio Coding 3
Расширение режима : CM (complete main)
Параметр Endianness формата : Big
Идентификатор кодека : 2000
Продолжительность : 58 м.
Вид битрейта : Постоянный
Битрейт : 192 Кбит/сек
Каналы : 2 канала
Расположение каналов : Front: L R
Частота : 48,0 КГц
Битовая глубина : 16 бит
Метод сжатия : С потерями
Размер потока : 81,0 Мбайт (9%)
Выравнивание : Разделение по промежуткам
Продолжительность промежутка : 40 мс. (1,00 видеокадр)
Время предзагрузки промежутка : 500 мс.



Скачать Пропавший.без.вести.The.Missing.(сезон.01).(Том.Шенклэнд).[2014.драма.криминал.детектив.BDRip].[MVO.(Amedia)]+[Eng]+[Sub.Rus.Eng].torrent без регистрации
Золото ЗОЛОТАЯ РАЗДАЧА! СКАЧАННОЕ НЕ ЗАСЧИТЫВАЕТСЯ! Золото
Дата: Зарегистрирован   [ Тип: внутренний ] Как тут cкачать?
MAGNET ссылка
MAGNET ссылка


Скачать .torrent

38 KB

Статус: проверено DHT
Скачан: торрент - 137 раз, раздача полностью - 51 раз
Размер: 7,02 GB
Оценка:  4 (Голосов: 1)
Поблагодарили: 4
Поделиться ссылкой на эту раздачу с друзьями:
В контактеFacebookОдноклассникиTwitterLivejournalМой МирLiveinternet
 

 
Показать сообщения:    


Вы не можете начинать темы
Вы не можете отвечать на сообщения
Вы не можете редактировать свои сообщения
Вы не можете удалять свои сообщения
Вы не можете голосовать в опросах
Вы не можете прикреплять файлы к сообщениям
Вы можете скачивать файлы