Loading...
Error

Скачать Ходячие мертвецы / The Walking Dead (Сезон 5, Серия 1-16 из 16) (Грег Никотеро, Дэвид Бойд, Джеффри Ф.и др.) [2014, Мистический триллер, ужасы, зомби, WEBDLRip] [DD5.1] [MVO] [ FOX,LostFilm,BaibaKo,UATEAM] [Subs RUS,ENG] торрент без регистрации

 
Статистика раздачи
Размер:  30,71 GB   |    Скачан:  2161 раз
Сидов:  1  [  0 KB/s  ]  
 
Автор Сообщение

Nikolai.Baranov

[] 



Ходячие мертвецы / The Walking Dead Сезон 5, Серия 1-16 из 16




Год выпуска: 2014-2015
Выпущено: США, AMC Studios, American Movie Classics (AMC), Circle of Confusion
Жанр: Мистический триллер, ужасы, зомби
Продолжительность: 00:43:00
Сезон: 5
Серия: 1-16
Количество серий в сезоне: 16
Озвучка 1: Профессиональный многоголосый- FOX
Озвучка 2: Профессиональный многоголосый - LostFilm
Озвучка 3: Профессиональный многоголосый -BaibaKo
Озвучка 4: Профессиональный многоголосый - UATEAM
Субтитры: Русские, английские

Сайт сериала:



Режиссер: Грег Никотеро, Дэвид Бойд, Джеффри Ф. Дженьюэри, Майкл Эдисон Сатраземис, Эрнест Р. Дикерсон, Сет Манн, Билл Джирхарт, Джулиус Рамсей

В ролях: Эндрю Линкольн, Норман Ридус, Стивен Юн, Лорен Коэн, Чендлер Риггз, Данай Джекесай Гурира, Мелисса Сюзанн МакБрайд, Майкл Кадлитц, Эмили Кинни, Чад Коулмэн, Сонеква Мартин, Лоуренс Гиллиард мл., Джош МакДермитт, Аланна Мастерсон, Сет Гиллиам

Четвертый сезон "Ходячих Мертвецов" закончился на том, что Рик и его люди оказались в контейнере, в руках превосходящих их числом и оружием обитателей Терминуса. Пятый сезон начинается через некоторое время там же. Далее, в истории переплетаются настоящие мотивы людей из Терминуса с хрупкой надеждой на лекарство в Вашингтоне, судьбой затерявшихся членов группы и местных жителей, новых конфликтов и новых преград к сохранению группы и выживанию.




Качество : WEB-DLRip
Формат: AVI
Видео кодек: DivX5
Видео: 2810Кбит/сек,720х406(16.9),в 23.976кадр/сек,MPEG4 Visual(DivX5)
Аудио кодек: AC3
Аудио #1:AC3 , 640 Kbps, 48.0 KHz, 6 ch- - FOX
Аудио #2: AC3, 640 Kbps, 48.0 KHz, 6 ch - - LostFilm
Аудио #3: AC3, 640 Kbps, 48.0 KHz, 6 ch - -BaibaKo
Аудио #4: AC3, 640 Kbps, 48.0 KHz,6 ch - - UATEAM-Ukrainian
Аудио #5: AC3, 640 Kbps, 48.0 KHz,6 ch - - English



Звуковая дорожка сделана путем наложения чистого голоса озвучивателей на центральный канал оригинальной дорожки. Качество идентично звуковой дорожке.



01. Убежища Нет / No Sanctuary
02. Незнакомцы / Strangers
03. Четыре стены и крыша / Four Walls and a Roof
04. Слэбтаун / Slabtown
05. Самопомощь / Self Help
06. Поглощенный / Consumed
07. Крещеный / Crossed
08. Хвост / Coda
09. Что случилось и что происходит / What Happened and What's Going On
10. К ним / Them
11. Расстояние / The Distance
12. Помни / Remember
13. Забыть / Forget
14. Тратить / Spend
15. Пытаться / Try
16. Подчинить / Conquer



General
Полное имя : D:\ХОДЯЧИЕ МЕРТВЕЦЫ\THE_WALKING_DEAD_S05_RUS_UKR_ENG[ FOX_LostFilm_BaibaKo_UATEAM]_[AVI_DivX5_DD5.1]_Nikolai.Baranov_WEB-DLRip\THE_WALKING_DEAD_S05E01_RUS_UKR_ENG[ FOX_LostFilm_BaibaKo_UATEAM]_[AVI_DivX5_DD5.1]_Nikolai.Baranov_WEB-DLRip.divx
Формат : AVI
Формат/Информация : Audio Video Interleave
Размер файла : 1.84 GiB
Продолжительность : 43mn 42s
Общий поток : 6 039 Kbps

Video
Идентификатор : 0
Формат : MPEG-4 Visual
Параметр BVOP формата : 1
Параметр QPel формата : No
Параметр GMC формата : No warppoints
Параметр матрицы формата : Default (H.263)
Режим смешивания : Packed bitstream
Идентификатор кодека : DX50
Идентификатор кодека/Подсказка : DivX 5
Продолжительность : 43mn 42s
Битрейт : 2 810 Kbps
Ширина : 720 pixels
Высота : 406 pixels
Соотношение сторон : 16:9
Частота кадров : 23.976 fps
Цветовое пространство : YUV
Субдискретизация насыщенности : 4:2:0
Битовая глубина : 8 bits
Тип развёртки : Progressive
Метод сжатия : Lossy
Бит/(Пиксели*Кадры) : 0.401
Размер потока : 879 MiB (47%)
Заголовок : Video
Библиотека кодирования : DivX 2682

Audio #1
Идентификатор : 1
Формат : AC-3
Формат/Информация : Audio Coding 3
Расширение режима : CM (complete main)
Параметр Endianness формата : Big
Идентификатор кодека : 2000
Продолжительность : 43mn 42s
Вид битрейта : Constant
Битрейт : 640 Kbps
Каналы : 6 channels
Расположение каналов : Front: L C R, Side: L R, LFE
Частота : 48.0 KHz
Битовая глубина : 16 bits
Метод сжатия : Lossy
Размер потока : 200 MiB (11%)
Выравнивание : Split accross interleaves
Продолжительность промежутка : 42 ms (1.00 video frame)
Время предзагрузки промежутка : 500 ms
Заголовок : Audio - en-US01

Audio #2
Идентификатор : 2
Формат : AC-3
Формат/Информация : Audio Coding 3
Расширение режима : CM (complete main)
Параметр Endianness формата : Big
Идентификатор кодека : 2000
Продолжительность : 43mn 42s
Вид битрейта : Constant
Битрейт : 640 Kbps
Каналы : 6 channels
Расположение каналов : Front: L C R, Side: L R, LFE
Частота : 48.0 KHz
Битовая глубина : 16 bits
Метод сжатия : Lossy
Размер потока : 200 MiB (11%)
Выравнивание : Split accross interleaves
Продолжительность промежутка : 42 ms (1.00 video frame)
Время предзагрузки промежутка : 500 ms
Заголовок : Audio - en-US01

Audio #3
Идентификатор : 3
Формат : AC-3
Формат/Информация : Audio Coding 3
Расширение режима : CM (complete main)
Параметр Endianness формата : Big
Идентификатор кодека : 2000
Продолжительность : 43mn 42s
Вид битрейта : Constant
Битрейт : 640 Kbps
Каналы : 6 channels
Расположение каналов : Front: L C R, Side: L R, LFE
Частота : 48.0 KHz
Битовая глубина : 16 bits
Метод сжатия : Lossy
Размер потока : 200 MiB (11%)
Выравнивание : Split accross interleaves
Продолжительность промежутка : 42 ms (1.00 video frame)
Время предзагрузки промежутка : 500 ms
Заголовок : Audio - en-US01

Audio #4
Идентификатор : 4
Формат : AC-3
Формат/Информация : Audio Coding 3
Расширение режима : CM (complete main)
Параметр Endianness формата : Big
Идентификатор кодека : 2000
Продолжительность : 43mn 42s
Вид битрейта : Constant
Битрейт : 640 Kbps
Каналы : 6 channels
Расположение каналов : Front: L C R, Side: L R, LFE
Частота : 48.0 KHz
Битовая глубина : 16 bits
Метод сжатия : Lossy
Размер потока : 200 MiB (11%)
Выравнивание : Split accross interleaves
Продолжительность промежутка : 42 ms (1.00 video frame)
Время предзагрузки промежутка : 500 ms
Заголовок : Audio - en-US01

Audio #5
Идентификатор : 5
Формат : AC-3
Формат/Информация : Audio Coding 3
Расширение режима : CM (complete main)
Параметр Endianness формата : Big
Идентификатор кодека : 2000
Продолжительность : 43mn 42s
Вид битрейта : Constant
Битрейт : 640 Kbps
Каналы : 6 channels
Расположение каналов : Front: L C R, Side: L R, LFE
Частота : 48.0 KHz
Битовая глубина : 16 bits
Метод сжатия : Lossy
Размер потока : 200 MiB (11%)
Выравнивание : Split accross interleaves
Продолжительность промежутка : 42 ms (1.00 video frame)
Время предзагрузки промежутка : 500 ms
Заголовок : Audio - en-US01







1. Открыть торрент
2. Снять галки с тех файлов торрента, которые мы не хотим закачивать. Оставляем только на нужных нам файлах (файле).
3. Нажать О.К.

[color=brown][b]В клиенте utorrent

Инструкция

1) Открыть торрент


2) Снять галки с тех файлов торрента, которые мы не хотим закачивать:

* либо вручную, снимая с каждого файла галку( скрин №1)
* либо, нажав кнопку "Снять метки (Select None)", сняв сразу со всех файлов(скрин №2)
№1

№2

Оставляем только на нужных нам файлах (файле).

3)Нажать О.К






Релиз от: Nikolai.Baranov










Скачать Ходячие.мертвецы.The.Walking.Dead.(Сезон.5.Серия.1-16.из.16).(Грег.Никотеро.Дэвид.Бойд.Джеффри.Ф.и.др.).[2014.Мистический.триллер.ужасы.зомби.WEBDLRip].[DD5.1].[MVO].[.FOX.LostFilm.BaibaKo.UATEAM].[Subs.RUS.ENG].torrent без регистрации
Золото ЗОЛОТАЯ РАЗДАЧА! СКАЧАННОЕ НЕ ЗАСЧИТЫВАЕТСЯ! Золото
Дата: Зарегистрирован   [ Тип: внутренний ] Как тут cкачать?
MAGNET ссылка
MAGNET ссылка


Скачать .torrent

87 KB

Статус: проверено DHT
Скачан: торрент - 2161 раз, раздача полностью - 29 раз
Размер: 30,71 GB
Оценка:  - (Голосов: 0)
Поблагодарили: 0
Поделиться ссылкой на эту раздачу с друзьями:
В контактеFacebookОдноклассникиTwitterLivejournalМой МирLiveinternet
 

 
Показать сообщения:    


Вы не можете начинать темы
Вы не можете отвечать на сообщения
Вы не можете редактировать свои сообщения
Вы не можете удалять свои сообщения
Вы не можете голосовать в опросах
Вы не можете прикреплять файлы к сообщениям
Вы можете скачивать файлы