Loading...
Error

Скачать Сутенер / Le Mac (Паскаль Бюрдо) [2009, комедия, криминал, BDRip] [Dub]+[MVO]+[Sub]x2 торрент без регистрации

 
Статистика раздачи
Размер:  1,69 GB   |    Скачан:  155 раз
Сидов:  1  [  0 KB/s  ]  
 
Автор Сообщение

Marsianka

[] 

Сутенер
| Le Mac |

Информация о фильме
Название: Сутенер
Оригинальное название: Le Mac
Год выхода: 2009
Жанр: комедия, криминал
Режиссер: Паскаль Бюрдо
В ролях: Хосе Гарсия, Жильбер Мелки, Кармен Маура, Арсен Моска, Джо Престиа, Каталина Дэнис, Ален Фромаже, Лоран Бато, Дуду Маста

О фильме:
Его зовут Жильбер Шапель и он успешный банкир. В один прекрасный день его жизнь круто меняется! Оказывается, у Жильбера есть брат-близнец, который является опасным преступником и сутенером. Полицейские разыскали Жильбера и предложили ему необычную сделку! Жильбер сыграет роль своего брата и у него всего 36 часов на превращение из банкира в сутенера!



Страна: Франция
Студия: La Petite Reine, ARP Sélection, M6 Films
Продолжительность: 01:32:12
Перевод: Дублированный, профессиональный многоголосый

Файл
Кодек: XviD
Качество: BDRip
Видео: 1656 Кбит/с, 720x304, 24.000 кадр/с

• №1: Русский (АС3, 6 ch, 384 Кбит/с) Дублированный [R5]
• №2: Русский (АС3, 2 ch, 192 Кбит/с) Профессиональный многоголосый [Первый канал]
Отдельно:
• №3: Французский (АС3, 6 ch, 384 Кбит/с)

Субтитры: Французские, английские

Полное имя : Le.mac.2009.XviD.BDRip.0ptimus.avi
Формат : AVI
Формат/Информация : Audio Video Interleave
Размер файла : 1,45 Гбайт
Продолжительность : 1 ч. 32 м.
Общий поток : 2246 Кбит/сек
Название фильма : Сутенер | Le mac [2009] BDRip
Режиссёр : 0ptimus
Жанр : комедия, криминал
Программа кодирования : VirtualDubMod 1.5.10.2 (build 2540/release)
Библиотека кодирования : VirtualDubMod build 2540/release
Формат оригинала/Имя : Movie
Правообладатель : kinozal.tv
Примечание : DUB, MVO, FRE

Видео
Идентификатор : 0
Формат : MPEG-4 Visual
Профиль формата : Advanced Simple@L5
Параметр BVOP формата : 1
Параметр QPel формата : Нет
Параметр GMC формата : Без точки перехода
Параметр матрицы формата : Выборочная
Идентификатор кодека : XVID
Идентификатор кодека/Подсказка : XviD
Продолжительность : 1 ч. 32 м.
Битрейт : 1656 Кбит/сек
Ширина : 720 пикселей
Высота : 304 пикселя
Соотношение сторон : 2,35:1
Частота кадров : 24,000 кадра/сек
Цветовое пространство : YUV
Субдискретизация насыщенности : 4:2:0
Битовая глубина : 8 бит
Тип развёртки : Прогрессивная
Метод сжатия : С потерями
Бит/(Пиксели*Кадры) : 0.315
Размер потока : 1,07 Гбайт (74%)
Библиотека кодирования : XviD 64

Аудио #1
Идентификатор : 1
Формат : AC-3
Формат/Информация : Audio Coding 3
Расширение режима : CM (complete main)
Параметр Endianness формата : Big
Идентификатор кодека : 2000
Продолжительность : 1 ч. 32 м.
Вид битрейта : Постоянный
Битрейт : 384 Кбит/сек
Каналы : 6 каналов
Расположение каналов : Front: L C R, Side: L R, LFE
Частота : 48,0 КГц
Битовая глубина : 16 бит
Метод сжатия : С потерями
Размер потока : 253 Мбайт (17%)
Выравнивание : Разделение по промежуткам
Продолжительность промежутка : 42 мс. (1,00 видеокадр)
Время предзагрузки промежутка : 500 мс.
Заголовок : Дубляж [R5] AC3 5.1 @ 384 kbps

Аудио #2
Идентификатор : 2
Формат : AC-3
Формат/Информация : Audio Coding 3
Расширение режима : CM (complete main)
Параметр Endianness формата : Big
Идентификатор кодека : 2000
Продолжительность : 1 ч. 32 м.
Вид битрейта : Постоянный
Битрейт : 192 Кбит/сек
Каналы : 2 канала
Расположение каналов : Front: L R
Частота : 48,0 КГц
Битовая глубина : 16 бит
Метод сжатия : С потерями
Размер потока : 127 Мбайт (9%)
Выравнивание : Разделение по промежуткам
Продолжительность промежутка : 42 мс. (1,00 видеокадр)
Время предзагрузки промежутка : 500 мс.
Заголовок : Многоголосый [Первый канал] AC3 2.0 @ 192 kbps
Релиз от:



Скачать Сутенер.Le.Mac.(Паскаль.Бюрдо).[2009.комедия.криминал.BDRip].[Dub]+[MVO]+[Sub]x2.torrent без регистрации
Золото ЗОЛОТАЯ РАЗДАЧА! СКАЧАННОЕ НЕ ЗАСЧИТЫВАЕТСЯ! Золото
Дата: Зарегистрирован   [ Тип: внутренний ] Как тут cкачать?
MAGNET ссылка
MAGNET ссылка


Скачать .torrent

35 KB

Статус: проверено DHT
Скачан: торрент - 155 раз, раздача полностью - 43 раз
Размер: 1,69 GB
Оценка:  - (Голосов: 0)
Поблагодарили: 0
Поделиться ссылкой на эту раздачу с друзьями:
В контактеFacebookОдноклассникиTwitterLivejournalМой МирLiveinternet
 

 
Показать сообщения:    


Вы не можете начинать темы
Вы не можете отвечать на сообщения
Вы не можете редактировать свои сообщения
Вы не можете удалять свои сообщения
Вы не можете голосовать в опросах
Вы не можете прикреплять файлы к сообщениям
Вы можете скачивать файлы