Loading...
Error

Скачать Андеграунд / Underground (Эмир Кустурица) [1995, драма, комедия, военный, BDRip-AVC] [MVO] торрент без регистрации

 
Статистика раздачи
Размер:  2,18 GB   |    Скачан:  140 раз
Сидов:  1  [  0 KB/s  ]  
 
Автор Сообщение

Marsianka

[] 

Андеграунд / Underground (1995) BDRip-AVC

Информация о фильме
Название: Андеграунд
Оригинальное название: Underground
Год выхода: 1995
Жанр: драма, комедия, военный
Режиссер: Эмир Кустурица

В ролях: Мики Манойлович, Лазар Ристовски, Миряна Йокович, Славко Штимац, Эрнст Штёцнер, Срджан Тодорович, Миряна Каранович, Милена Павлович, Данило Бата Стойкович, Бора Тодорович, Давор Дуймович, Д-р Неле Карайлич, Бранислав Лечич, Драган Николич, Эрол Кадич, Предраг Загорач, Харк Бом, Петар Краль, Эмир Кустурица, Пьер Спенглер, Бранко Свежич, Иосиф Татич, Ждена Хурточакова, Таня Кечман, Альбена Ставрева, Элижабета Джоревска, Мирсад Тука, Батика Никалич, ДеСа Биоградлия, Зоран Милькович...

О фильме: В дни Второй мировой войны в Белграде подпольщики-антифашисты организовали целую фабрику по производству оружия. Война давно закончилась, а они продолжают свою деятельность. И все эти годы «наверху» жизнь течет своим чередом, а в «подполье» — своим.



Страна: Югославия (ФР), Германия, Франция, Чехия, Венгрия, Болгария
Продолжительность: 02:50:01
Перевод: Профессиональный (многоголосый закадровый)

Файл
Кодек: x.264
Качество: BDRip-AVC
Видео: 1024x560 (1,85:1), 24 fps, 1646 kbps, 0.120 bit/pixel
Звук: 48 kHz, AC3 Dolby Digital, 2 ch, ~192.00 kbps

&
Общее
Уникальный идентификатор : 191557489410582835942953477299755930048 (0x901CA167F90605C19279FFF25531D1C0)
Полное имя : D:Underground.1995.BDRip-AVC.mkv
Формат : Matroska
Версия формата : Version 2
Размер файла : 2,18 Гбайт
Продолжительность : 2 ч. 50 м.
Общий поток : 1840 Кбит/сек
Название фильма : Андерграунд / Underground (1995) BDRip-AVC rip by Rulya74
Дата кодирования : UTC 2014-02-24 07:54:49
Программа кодирования : mkvmerge v4.9.1 ('Ich will') зібрано Jul 11 2011 23:53:15
Библиотека кодирования : libebml v1.2.1 + libmatroska v1.1.1

Видео
Идентификатор : 1
Формат : AVC
Формат/Информация : Advanced Video Codec
Профиль формата : High@L4.1
Параметр CABAC формата : Да
Параметр ReFrames формата : 11 кадров
Идентификатор кодека : V_MPEG4/ISO/AVC
Продолжительность : 2 ч. 50 м.
Битрейт : 1646 Кбит/сек
Ширина : 1024 пикселя
Высота : 560 пикселей
Соотношение сторон : 1,85:1
Режим частоты кадров : Постоянный
Частота кадров : 24,000 кадра/сек
Цветовое пространство : YUV
Субдискретизация насыщенности : 4:2:0
Битовая глубина : 8 бит
Тип развёртки : Прогрессивная
Бит/(Пиксели*Кадры) : 0.120
Размер потока : 1,91 Гбайт (88%)
Библиотека кодирования : x264 core 130 r2273 b3065e6
Настройки программы : cabac=1 / ref=11 / deblock=1:-3:-2 / analyse=0x3:0x102 / me=umh / subme=11 / psy=1 / psy_rd=1.00:0.10 / mixed_ref=1 / me_range=48 / chroma_me=1 / trellis=2 / 8x8dct=1 / cqm=0 / deadzone=21,11 / fast_pskip=0 / chroma_qp_offset=-3 / threads=6 / lookahead_threads=1 / sliced_threads=0 / nr=0 / decimate=1 / interlaced=0 / bluray_compat=0 / constrained_intra=0 / bframes=7 / b_pyramid=2 / b_adapt=2 / b_bias=0 / direct=3 / weightb=1 / open_gop=0 / weightp=2 / keyint=250 / keyint_min=24 / scenecut=40 / intra_refresh=0 / rc_lookahead=50 / rc=2pass / mbtree=1 / bitrate=1646 / ratetol=1.0 / qcomp=0.60 / qpmin=0 / qpmax=69 / qpstep=4 / cplxblur=20.0 / qblur=0.5 / ip_ratio=1.40 / aq=1:1.00
Default : Да
Forced : Нет

Аудио
Идентификатор : 2
Формат : AC-3
Формат/Информация : Audio Coding 3
Расширение режима : CM (complete main)
Параметр Endianness формата : Big
Идентификатор кодека : A_AC3
Продолжительность : 2 ч. 50 м.
Вид битрейта : Постоянный
Битрейт : 192 Кбит/сек
Каналы : 2 канала
Расположение каналов : Front: L R
Частота : 48,0 КГц
Битовая глубина : 16 бит
Метод сжатия : С потерями
Размер потока : 233 Мбайт (10%)
Заголовок : Профессиональный (многоголосый закадровый)
Язык : Russian
Default : Да
Forced : Нет



Скачать Андеграунд.Underground.(Эмир.Кустурица).[1995.драма.комедия.военный.BDRip-AVC].[MVO].torrent без регистрации
Золото ЗОЛОТАЯ РАЗДАЧА! СКАЧАННОЕ НЕ ЗАСЧИТЫВАЕТСЯ! Золото
Дата: Зарегистрирован   [ Тип: внутренний ] Как тут cкачать?
MAGNET ссылка
MAGNET ссылка


Скачать .torrent

12 KB

Статус: проверено DHT
Скачан: торрент - 140 раз, раздача полностью - 88 раз
Размер: 2,18 GB
Оценка:  - (Голосов: 0)
Поблагодарили: 2
Поделиться ссылкой на эту раздачу с друзьями:
В контактеFacebookОдноклассникиTwitterLivejournalМой МирLiveinternet
 

 
Показать сообщения:    


Вы не можете начинать темы
Вы не можете отвечать на сообщения
Вы не можете редактировать свои сообщения
Вы не можете удалять свои сообщения
Вы не можете голосовать в опросах
Вы не можете прикреплять файлы к сообщениям
Вы можете скачивать файлы