Loading...
Error

Скачать История вечной любви / Ever After: A Cinderella Story (Энди Теннант) [1998, драма, мелодрама, комедия, BDRip-AVC] [MVO]x2+[Оригинал]+[Sub]x2 торрент без регистрации

 
Статистика раздачи
Размер:  3,07 GB   |    Скачан:  115 раз
Сидов:  1  [  0 KB/s  ]  
 
Автор Сообщение

Marsianka

[] 

Год выпуска: 1998
Страна: США
Жанр: драма, мелодрама, комедия
Продолжительность: 02:01:13
Перевод: профессиональный многоголосый
Субтитры: русские, английские

Режиссёр: Энди Теннант

В ролях: Дрю Бэрримор, Анжелика Хьюстон, Дугрей Скотт, Патрик Годфри, Меган Доддс, Мелани Лински, Тимоти Уэст, Джуди Парфитт, Йерун Краббе, Ли Инглби, Кейт Лэнсбери, Мэтилок Гиббс, Уолтер Спэрроу, Жанна Моро, Анна Магвайр, Ричард О’Брайэн, Питер Ганн, Джорг Стэдлер, Эндрю Хендерсон, Тоби Джонс, Вирджиния Гарсия, Аль Эштон, Марк Льюис, Рикардо Круз, Джон Уолтерс, Элизабет Эрл, Алекс Пули, Джанет Хенфри, Урсула Джонс, Аманда Уокер, Рапам Максвелл, Тони Дойл, Кристиан Марк, Эльвира Стивенсон

Описание: Это не просто история Золушки, которая знакома всем с детства. Для своего шестнадцатого века Даниэлла — явление уникальное. Она не только привлекательна, но и по-мальчишески ловка и энергична. Обладая острым умом и чувством независимости, Даниэлла не ждёт, когда принц её выручит. Напротив, она сама приходит к нему на помощь и даже в нужный момент спасает ему жизнь, перенеся на своей спине в безопасное место. И уж если ей приходится прибегнуть к чьей-то помощи, то помогает ей не добрая фея, а самый настоящий Леонардо да Винчи. Однако хрустальные туфельки Даниэлла действительно надевает... Фильм по мотивам сказки Шарля Перро.



Качество: BDRip-AVC Сравнение с исходником
Формат: MKV
Видео кодек: H.264
Аудио кодек: AC3
Видео: 2469 Кбит/с, 1024x436, 23.976 кадра/с, 0.231 bpp
Аудио 1: русский, AC3, 448 kbps, 6 ch, 48 kHz [профессиональный многоголосый, OPT]
Аудио 2: русский, AC3, 192 kbps, 2 ch, 48 kHz [профессиональный многоголосый, HTB]
Аудио 3: английский, AC3, 448 kbps, 6 ch, 48 kHz [оригинал]
Сатурн, 1999 год
Победитель (2):
Лучшая актриса (Дрю Бэрримор)
Лучшие костюмы

Номинации (2):
Лучшая актриса второго плана (Анжелика Хьюстон)
Лучшая музыка
frame I:1501 Avg QP:19.64 size: 73277
frame P:34203 Avg QP:21.08 size: 26721
frame B:138681 Avg QP:23.46 size: 9260

Общее
Уникальный идентификатор : 221885656972195145269344602991867894032 (0xA6ED9F836F2F5B3093AA615AE6869910)
Полное имя : D:VideoIstorija vechnoj ljubvi.1998.BDRip.AVC.mkv
Формат : Matroska
Версия формата : Version 4 / Version 2
Размер файла : 3,07 Гбайт
Продолжительность : 2 ч. 1 м.
Общий поток : 3629 Кбит/сек
Дата кодирования : UTC 2015-04-03 11:53:35
Программа кодирования : mkvmerge v7.8.0 ('River Man') 64bit built on Mar 27 2015 16:31:37
Библиотека кодирования : libebml v1.3.1 + libmatroska v1.4.2
DURATION : 01:55:08.438000000
NUMBER_OF_FRAMES : 1478
NUMBER_OF_BYTES : 47206
_STATISTICS_WRITING_APP : mkvmerge v7.8.0 ('River Man') 64bit built on Mar 27 2015 16:31:37
_STATISTICS_WRITING_DATE_UTC : 2015-04-03 11:53:35
_STATISTICS_TAGS : BPS DURATION NUMBER_OF_FRAMES NUMBER_OF_BYTES

Видео
Идентификатор : 1
Формат : AVC
Формат/Информация : Advanced Video Codec
Профиль формата : High@L4.1
Параметр CABAC формата : Да
Параметр ReFrames формата : 9 кадров
Идентификатор кодека : V_MPEG4/ISO/AVC
Продолжительность : 2 ч. 1 м.
Битрейт : 2469 Кбит/сек
Ширина : 1024 пикселя
Высота : 436 пикселей
Соотношение сторон : 2,35:1
Режим частоты кадров : Постоянный
Частота кадров : 23,976 кадра/сек
Цветовое пространство : YUV
Субдискретизация насыщенности : 4:2:0
Битовая глубина : 8 бит
Тип развёртки : Прогрессивная
Бит/(Пиксели*Кадры) : 0.231
Размер потока : 2,09 Гбайт (68%)
Заголовок : BDRip -- STarankov
Библиотека кодирования : x264 core 146 r2538 121396c
Настройки программы : cabac=1 / ref=9 / deblock=1:-1:-1 / analyse=0x3:0x113 / me=umh / subme=10 / psy=1 / psy_rd=1.00:0.15 / mixed_ref=1 / me_range=32 / chroma_me=1 / trellis=2 / 8x8dct=1 / cqm=0 / deadzone=21,11 / fast_pskip=1 / chroma_qp_offset=-3 / threads=6 / lookahead_threads=1 / sliced_threads=0 / nr=0 / decimate=1 / interlaced=0 / bluray_compat=0 / constrained_intra=0 / bframes=8 / b_pyramid=2 / b_adapt=2 / b_bias=0 / direct=3 / weightb=1 / open_gop=0 / weightp=2 / keyint=230 / keyint_min=23 / scenecut=40 / intra_refresh=0 / rc_lookahead=40 / rc=crf / mbtree=0 / crf=20.0 / qcomp=0.60 / qpmin=0 / qpmax=69 / qpstep=4 / vbv_maxrate=40000 / vbv_bufsize=50000 / crf_max=0.0 / nal_hrd=none / filler=0 / ip_ratio=1.40 / pb_ratio=1.30 / aq=1:1.00
Язык : English
Default : Да
Forced : Нет
DURATION : 02:01:13.308000000
NUMBER_OF_FRAMES : 174385
NUMBER_OF_BYTES : 2308176427
_STATISTICS_WRITING_APP : mkvmerge v7.8.0 ('River Man') 64bit built on Mar 27 2015 16:31:37
_STATISTICS_WRITING_DATE_UTC : 2015-04-03 11:53:35
_STATISTICS_TAGS : BPS DURATION NUMBER_OF_FRAMES NUMBER_OF_BYTES

Аудио #1
Идентификатор : 2
Формат : AC-3
Формат/Информация : Audio Coding 3
Расширение режима : CM (complete main)
Параметр Endianness формата : Big
Идентификатор кодека : A_AC3
Продолжительность : 2 ч. 1 м.
Вид битрейта : Постоянный
Битрейт : 448 Кбит/сек
Каналы : 6 каналов
Расположение каналов : Front: L C R, Side: L R, LFE
Частота : 48,0 КГц
Битовая глубина : 16 бит
Метод сжатия : С потерями
Размер потока : 388 Мбайт (12%)
Заголовок : MVO (OPT)
Язык : Russian
Default : Да
Forced : Нет

Аудио #2
Идентификатор : 3
Формат : AC-3
Формат/Информация : Audio Coding 3
Расширение режима : CM (complete main)
Параметр Endianness формата : Big
Идентификатор кодека : A_AC3
Продолжительность : 2 ч. 1 м.
Вид битрейта : Постоянный
Битрейт : 192 Кбит/сек
Каналы : 2 канала
Расположение каналов : Front: L R
Частота : 48,0 КГц
Битовая глубина : 16 бит
Метод сжатия : С потерями
Размер потока : 166 Мбайт (5%)
Заголовок : MVO (HTB)
Язык : Russian
Default : Нет
Forced : Нет

Аудио #3
Идентификатор : 4
Формат : AC-3
Формат/Информация : Audio Coding 3
Расширение режима : CM (complete main)
Параметр Endianness формата : Big
Идентификатор кодека : A_AC3
Продолжительность : 2 ч. 1 м.
Вид битрейта : Постоянный
Битрейт : 448 Кбит/сек
Каналы : 6 каналов
Расположение каналов : Front: L C R, Side: L R, LFE
Частота : 48,0 КГц
Битовая глубина : 16 бит
Метод сжатия : С потерями
Размер потока : 388 Мбайт (12%)
Заголовок : Original
Язык : English
Default : Нет
Forced : Нет

Текст #1
Идентификатор : 5
Формат : UTF-8
Идентификатор кодека : S_TEXT/UTF8
Идентификатор кодека/Информация : UTF-8 Plain Text
Заголовок : русские
Язык : Russian
Default : Нет
Forced : Нет

Текст #2
Идентификатор : 6
Формат : UTF-8
Идентификатор кодека : S_TEXT/UTF8
Идентификатор кодека/Информация : UTF-8 Plain Text
Заголовок : английские
Default : Нет
Forced : Нет



Скачать История.вечной.любви.Ever.After.A.Cinderella.Story.(Энди.Теннант).[1998.драма.мелодрама.комедия.BDRip-AVC].[MVO]x2+[Оригинал]+[Sub]x2.torrent без регистрации
Золото ЗОЛОТАЯ РАЗДАЧА! СКАЧАННОЕ НЕ ЗАСЧИТЫВАЕТСЯ! Золото
Дата: Зарегистрирован   [ Тип: внутренний ] Как тут cкачать?
MAGNET ссылка
MAGNET ссылка


Скачать .torrent

16 KB

Статус: проверено DHT
Скачан: торрент - 115 раз, раздача полностью - 3 раз
Размер: 3,07 GB
Оценка:  - (Голосов: 0)
Поблагодарили: 1
Поделиться ссылкой на эту раздачу с друзьями:
В контактеFacebookОдноклассникиTwitterLivejournalМой МирLiveinternet
 

 
Показать сообщения:    


Вы не можете начинать темы
Вы не можете отвечать на сообщения
Вы не можете редактировать свои сообщения
Вы не можете удалять свои сообщения
Вы не можете голосовать в опросах
Вы не можете прикреплять файлы к сообщениям
Вы можете скачивать файлы