Loading...
Error

Скачать Более странно, чем в раю / Stranger Than Paradise (Джим Джармуш) [1984, драма, комедия, BDRip-AVC] [DVO]+[Оригинал]+[Sub]x2 торрент без регистрации

 
Статистика раздачи
Размер:  3,12 GB   |    Скачан:  119 раз
Сидов:  1  [  0 KB/s  ]  
 
Автор Сообщение

Marsianka

[] 



Страна: США, Германия (ФРГ)
Жанр: драма, комедия
Год выпуска: 1984
Продолжительность: 01:29:03

Перевод: Профессиональный (двухголосый закадровый)
Cубтитры: русские, английские
Оригинальная аудиодорожка: английский

Режиссер: Джим Джармуш

В ролях: Джон Лури, Эстер Балинт, Ричард Эдсон, Сесиллия Старк, Дэнни Розен, Раммельзи, Том ДиЧилл, Ричард Боэ, Рокетс Редглэр, Харви Перр

Описание: Скучающие молодые люди Вилли и Эдди — бездельники и игроки. Их жизнь — такая же затхлая помойка, как и квартал Манхеттена, в котором они обитают. Однако в один прекрасный день к Вилли приезжает юная кузина Ева из Венгрии, и постепенно друзья решаются на перемены…



Качество видео: BDRip-AVC
Формат видео: MKV
Видео: AVC Hi10P, 1024x576, 16:9, 23.976 fps, 4 630 Kbps

Первую (получасовую) версию фильма Джим Джармуш снял на плёнку, подаренную Вимом Вендерсом. Это были запасы, которые остались у немецкого режиссёра после съемок фильма «Положение вещей» (1982).
Аудио: Russian AС3 2ch 48kHz 192Kbps | DVO (R5)
Аудио 2: English AС3 2ch 48kHz 192Kbps | Original
Формат субтитров: softsub (SRT)

General
Unique ID : 170803725316853756776872772895356190405 (0x807F99D5E5AE2BE88228CB98E9EB7EC5)
Complete name : D:TorrentNe Pr0nБолее странно, чем в раю.mkv
Format : Matroska
Format version : Version 4 / Version 2
File size : 3.12 GiB
Duration : 1h 29mn
Overall bit rate : 5 013 Kbps
Encoded date : UTC 2015-04-03 12:39:13
Writing application : mkvmerge v7.6.0 ('Garden of Dreams') 64bit built on Feb 8 2015 13:04:34
Writing library : libebml v1.3.1 + libmatroska v1.4.2

Video
ID : 1
Format : AVC
Format/Info : Advanced Video Codec
Format profile : High 10@L4.1
Format settings, CABAC : Yes
Format settings, ReFrames : 16 frames
Codec ID : V_MPEG4/ISO/AVC
Duration : 1h 29mn
Bit rate : 4 630 Kbps
Width : 1 024 pixels
Height : 576 pixels
Display aspect ratio : 16:9
Frame rate mode : Constant
Frame rate : 23.976 fps
Color space : YUV
Chroma subsampling : 4:2:0
Bit depth : 10 bits
Scan type : Progressive
Bits/(Pixel*Frame) : 0.327
Stream size : 2.82 GiB (90%)
Writing library : x264_10 - core 146 r2538M 121396c
Encoding settings : cabac=1 / ref=16 / deblock=1:-1:-1 / analyse=0x3:0x133 / me=tesa / subme=11 / psy=1 / psy_rd=1,05:0,15 / mixed_ref=1 / me_range=24 / chroma_me=1 / trellis=2 / 8x8dct=1 / cqm=0 / deadzone=21,11 / fast_pskip=0 / chroma_qp_offset=-3 / threads=14 / lookahead_threads=3 / sliced_threads=0 / nr=0 / decimate=1 / interlaced=0 / bluray_compat=0 / constrained_intra=0 / bframes=16 / b_pyramid=2 / b_adapt=2 / b_bias=0 / direct=3 / weightb=1 / open_gop=0 / weightp=2 / keyint=230 / keyint_min=23 / scenecut=40 / intra_refresh=0 / rc_lookahead=230 / rc=2pass / mbtree=1 / bitrate=4630 / ratetol=1,0 / qcomp=0,70 / qpmin=3 / qpmax=69 / qpstep=4 / cplxblur=20,0 / qblur=0,5 / ip_ratio=1,40 / aq=2:1,00
Default : Yes
Forced : No

Audio #1
ID : 2
Format : AC-3
Format/Info : Audio Coding 3
Mode extension : CM (complete main)
Format settings, Endianness : Big
Codec ID : A_AC3
Duration : 1h 29mn
Bit rate mode : Constant
Bit rate : 192 Kbps
Channel(s) : 2 channels
Channel positions : Front: L R
Sampling rate : 48.0 KHz
Bit depth : 16 bits
Compression mode : Lossy
Delay relative to video : -83ms
Stream size : 122 MiB (4%)
Title : DVO (R5)
Language : Russian
Default : Yes
Forced : No

Audio #2
ID : 3
Format : AC-3
Format/Info : Audio Coding 3
Mode extension : CM (complete main)
Format settings, Endianness : Big
Codec ID : A_AC3
Duration : 1h 29mn
Bit rate mode : Constant
Bit rate : 192 Kbps
Channel(s) : 2 channels
Channel positions : Front: L R
Sampling rate : 48.0 KHz
Bit depth : 16 bits
Compression mode : Lossy
Delay relative to video : -83ms
Stream size : 122 MiB (4%)
Language : English
Default : No
Forced : No

Text #1
ID : 4
Format : UTF-8
Codec ID : S_TEXT/UTF8
Codec ID/Info : UTF-8 Plain Text
Language : Russian
Default : No
Forced : No

Text #2
ID : 5
Format : UTF-8
Codec ID : S_TEXT/UTF8
Codec ID/Info : UTF-8 Plain Text
Language : English
Default : No
Forced : No



Скачать Более.странно.чем.в.раю.Stranger.Than.Paradise.(Джим.Джармуш).[1984.драма.комедия.BDRip-AVC].[DVO]+[Оригинал]+[Sub]x2.torrent без регистрации
Золото ЗОЛОТАЯ РАЗДАЧА! СКАЧАННОЕ НЕ ЗАСЧИТЫВАЕТСЯ! Золото
Дата: Зарегистрирован   [ Тип: внутренний ] Как тут cкачать?
MAGNET ссылка
MAGNET ссылка


Скачать .torrent

16 KB

Статус: проверено DHT
Скачан: торрент - 119 раз, раздача полностью - 1 раз
Размер: 3,12 GB
Оценка:  - (Голосов: 0)
Поблагодарили: 1
Поделиться ссылкой на эту раздачу с друзьями:
В контактеFacebookОдноклассникиTwitterLivejournalМой МирLiveinternet
 

 
Показать сообщения:    


Вы не можете начинать темы
Вы не можете отвечать на сообщения
Вы не можете редактировать свои сообщения
Вы не можете удалять свои сообщения
Вы не можете голосовать в опросах
Вы не можете прикреплять файлы к сообщениям
Вы можете скачивать файлы