Loading...
Error

Скачать У холмов есть глаза 2 / The Hills Have Eyes II (Мартин Вайз) [2007, ужасы, триллер, BDRip-AVC] [Расширенная версия] [Dub]+[DVO]+[AVO]x2+[Оригинал]+[Sub]x3 торрент без регистрации

 
Статистика раздачи
Размер:  2,81 GB   |    Скачан:  110 раз
Сидов:  1  [  0 KB/s  ]  
 
Автор Сообщение

Marsianka

[] 

Год выпуска: 2007
Страна: США
Жанр: ужасы, триллер
Продолжительность: 01:29:58
Перевод: дублированный, профессиональный двухголосый, авторский
Субтитры: русские (форсированные), русские, английские

Режиссёр: Мартин Вайз

В ролях: Майкл МакМиллиан, Джессика Строуп, Джейкоб Варгас, Флекс Александр, Ли Томпсон Янг, Даниэлла Алонсо, Эрик Эдельштейн, Решад Стрик, Бен Краули, Майкл Бэйли Смит

Описание: Во время учений солдаты Национальной гвардии США делают привал на пограничной заставе в Нью-Мексико и, к своему удивлению, обнаруживают, что там никого нет. Получив сигнал тревоги, исходящий с отдалённой горной возвышенности, группа военных решает отправиться в этот район, чтобы помочь терпящим бедствие. Спасатели не знают, что это местечко когда-то посетила печально известная семья Картеров, и что их поджидают кровожадные мутанты-каннибалы...



Качество: BDRip-AVC Сравнение с исходником
Формат: MKV
Видео кодек: H.264
Аудио кодек: AC3
Видео: 2142 Кбит/с, 1024x436, 23.976 кадра/с, 0.200 bpp
Аудио 1: русский, AC3, 448 kbps, 6 ch, 48 kHz [дублированный, Невафильм (Blu-ray CEE)]
Аудио 2: русский, AC3, 448 kbps, 6 ch, 48 kHz [профессиональный двухголосый, Пётр Гланц и Инна Королёва]
Аудио 3: русский, AC3, 448 kbps, 6 ch, 48 kHz [авторский, Дмитрий Есарев]
Аудио 4: русский, AC3, 448 kbps, 6 ch, 48 kHz [авторский, Михаил Яроцкий]
Аудио 5: английский, AC3, 448 kbps, 6 ch, 48 kHz [оригинал]
frame I:1384 Avg QP:15.94 size: 64625
frame P:29476 Avg QP:17.04 size: 22659
frame B:98575 Avg QP:19.38 size: 7572

Общее
Уникальный идентификатор : 186549723084230741362426788361772676966 (0x8C582B76BC3BABFABA7E85A898433766)
Полное имя : D:VideoU holmov est glaza 2.Unrated.2007.BDRip.AVC.mkv
Формат : Matroska
Версия формата : Version 4 / Version 2
Размер файла : 2,81 Гбайт
Продолжительность : 1 ч. 29 м.
Общий поток : 4471 Кбит/сек
Дата кодирования : UTC 2015-04-04 13:27:14
Программа кодирования : mkvmerge v7.8.0 ('River Man') 64bit built on Mar 27 2015 16:31:37
Библиотека кодирования : libebml v1.3.1 + libmatroska v1.4.2
_STATISTICS_WRITING_APP : mkvmerge v7.8.0 ('River Man') 64bit built on Mar 27 2015 16:31:37
_STATISTICS_WRITING_DATE_UTC : 2015-04-04 13:27:14
_STATISTICS_TAGS : BPS DURATION NUMBER_OF_FRAMES NUMBER_OF_BYTES
DURATION : 01:22:25.940000000
NUMBER_OF_FRAMES : 894
NUMBER_OF_BYTES : 27514

Видео
Идентификатор : 1
Формат : AVC
Формат/Информация : Advanced Video Codec
Профиль формата : High@L4.1
Параметр CABAC формата : Да
Параметр ReFrames формата : 9 кадров
Идентификатор кодека : V_MPEG4/ISO/AVC
Продолжительность : 1 ч. 29 м.
Битрейт : 2142 Кбит/сек
Ширина : 1024 пикселя
Высота : 436 пикселей
Соотношение сторон : 2,35:1
Режим частоты кадров : Постоянный
Частота кадров : 23,976 кадра/сек
Цветовое пространство : YUV
Субдискретизация насыщенности : 4:2:0
Битовая глубина : 8 бит
Тип развёртки : Прогрессивная
Бит/(Пиксели*Кадры) : 0.200
Размер потока : 1,35 Гбайт (48%)
Заголовок : BDRip -- STarankov
Библиотека кодирования : x264 core 146 r2538 121396c
Настройки программы : cabac=1 / ref=9 / deblock=1:-1:-1 / analyse=0x3:0x113 / me=umh / subme=10 / psy=1 / psy_rd=1.00:0.15 / mixed_ref=1 / me_range=32 / chroma_me=1 / trellis=2 / 8x8dct=1 / cqm=0 / deadzone=21,11 / fast_pskip=1 / chroma_qp_offset=-3 / threads=6 / lookahead_threads=1 / sliced_threads=0 / nr=0 / decimate=1 / interlaced=0 / bluray_compat=0 / constrained_intra=0 / bframes=8 / b_pyramid=2 / b_adapt=2 / b_bias=0 / direct=3 / weightb=1 / open_gop=0 / weightp=2 / keyint=230 / keyint_min=23 / scenecut=40 / intra_refresh=0 / rc_lookahead=40 / rc=crf / mbtree=0 / crf=18.0 / qcomp=0.60 / qpmin=0 / qpmax=69 / qpstep=4 / vbv_maxrate=40000 / vbv_bufsize=50000 / crf_max=0.0 / nal_hrd=none / filler=0 / ip_ratio=1.40 / pb_ratio=1.30 / aq=1:1.00
Язык : English
Default : Да
Forced : Нет
_STATISTICS_WRITING_APP : mkvmerge v7.8.0 ('River Man') 64bit built on Mar 27 2015 16:31:37
_STATISTICS_WRITING_DATE_UTC : 2015-04-04 13:27:14
_STATISTICS_TAGS : BPS DURATION NUMBER_OF_FRAMES NUMBER_OF_BYTES
DURATION : 01:29:58.518000000
NUMBER_OF_FRAMES : 129435
NUMBER_OF_BYTES : 1503724221

Аудио #1
Идентификатор : 2
Формат : AC-3
Формат/Информация : Audio Coding 3
Расширение режима : CM (complete main)
Параметр Endianness формата : Big
Идентификатор кодека : A_AC3
Продолжительность : 1 ч. 29 м.
Вид битрейта : Постоянный
Битрейт : 448 Кбит/сек
Каналы : 6 каналов
Расположение каналов : Front: L C R, Side: L R, LFE
Частота : 48,0 КГц
Битовая глубина : 16 бит
Метод сжатия : С потерями
Размер потока : 288 Мбайт (10%)
Заголовок : DUB (Невафильм (Blu-ray CEE))
Язык : Russian
Default : Да
Forced : Нет

Аудио #2
Идентификатор : 3
Формат : AC-3
Формат/Информация : Audio Coding 3
Расширение режима : CM (complete main)
Параметр Endianness формата : Big
Идентификатор кодека : A_AC3
Продолжительность : 1 ч. 29 м.
Вид битрейта : Постоянный
Битрейт : 448 Кбит/сек
Каналы : 6 каналов
Расположение каналов : Front: L C R, Side: L R, LFE
Частота : 48,0 КГц
Битовая глубина : 16 бит
Метод сжатия : С потерями
Размер потока : 288 Мбайт (10%)
Заголовок : DVO (Пётр Гланц и Инна Королёва)
Язык : Russian
Default : Нет
Forced : Нет

Аудио #3
Идентификатор : 4
Формат : AC-3
Формат/Информация : Audio Coding 3
Расширение режима : CM (complete main)
Параметр Endianness формата : Big
Идентификатор кодека : A_AC3
Продолжительность : 1 ч. 29 м.
Вид битрейта : Постоянный
Битрейт : 448 Кбит/сек
Каналы : 6 каналов
Расположение каналов : Front: L C R, Side: L R, LFE
Частота : 48,0 КГц
Битовая глубина : 16 бит
Метод сжатия : С потерями
Размер потока : 288 Мбайт (10%)
Заголовок : AVO (Дмитрий Есарев)
Язык : Russian
Default : Нет
Forced : Нет

Аудио #4
Идентификатор : 5
Формат : AC-3
Формат/Информация : Audio Coding 3
Расширение режима : CM (complete main)
Параметр Endianness формата : Big
Идентификатор кодека : A_AC3
Продолжительность : 1 ч. 29 м.
Вид битрейта : Постоянный
Битрейт : 448 Кбит/сек
Каналы : 6 каналов
Расположение каналов : Front: L C R, Side: L R, LFE
Частота : 48,0 КГц
Битовая глубина : 16 бит
Метод сжатия : С потерями
Размер потока : 288 Мбайт (10%)
Заголовок : AVO (Михаил Яроцкий)
Язык : Russian
Default : Нет
Forced : Нет

Аудио #5
Идентификатор : 6
Формат : AC-3
Формат/Информация : Audio Coding 3
Расширение режима : CM (complete main)
Параметр Endianness формата : Big
Идентификатор кодека : A_AC3
Продолжительность : 1 ч. 29 м.
Вид битрейта : Постоянный
Битрейт : 448 Кбит/сек
Каналы : 6 каналов
Расположение каналов : Front: L C R, Side: L R, LFE
Частота : 48,0 КГц
Битовая глубина : 16 бит
Метод сжатия : С потерями
Размер потока : 288 Мбайт (10%)
Заголовок : Original
Язык : English
Default : Нет
Forced : Нет

Текст #1
Идентификатор : 7
Формат : UTF-8
Идентификатор кодека : S_TEXT/UTF8
Идентификатор кодека/Информация : UTF-8 Plain Text
Заголовок : русские (форсированные)
Язык : Russian
Default : Да
Forced : Да

Текст #2
Идентификатор : 8
Формат : UTF-8
Идентификатор кодека : S_TEXT/UTF8
Идентификатор кодека/Информация : UTF-8 Plain Text
Заголовок : русские
Язык : Russian
Default : Нет
Forced : Нет

Текст #3
Идентификатор : 9
Формат : UTF-8
Идентификатор кодека : S_TEXT/UTF8
Идентификатор кодека/Информация : UTF-8 Plain Text
Заголовок : английские
Default : Нет
Forced : Нет



Скачать У.холмов.есть.глаза.2.The.Hills.Have.Eyes.II.(Мартин.Вайз).[2007.ужасы.триллер.BDRip-AVC].[Расширенная.версия].[Dub]+[DVO]+[AVO]x2+[Оригинал]+[Sub]x3.torrent без регистрации
Золото ЗОЛОТАЯ РАЗДАЧА! СКАЧАННОЕ НЕ ЗАСЧИТЫВАЕТСЯ! Золото
Дата: Зарегистрирован   [ Тип: внутренний ] Как тут cкачать?
MAGNET ссылка
MAGNET ссылка


Скачать .torrent

15 KB

Статус: проверено DHT
Скачан: торрент - 110 раз, раздача полностью - 4 раз
Размер: 2,81 GB
Оценка:  - (Голосов: 0)
Поблагодарили: 0
Поделиться ссылкой на эту раздачу с друзьями:
В контактеFacebookОдноклассникиTwitterLivejournalМой МирLiveinternet
 

 
Показать сообщения:    


Вы не можете начинать темы
Вы не можете отвечать на сообщения
Вы не можете редактировать свои сообщения
Вы не можете удалять свои сообщения
Вы не можете голосовать в опросах
Вы не можете прикреплять файлы к сообщениям
Вы можете скачивать файлы