Loading...
Error

Скачать Фантоцци против всех / Fantozzi contro tutti (Паоло Вилладжо, Нери Паренти) [1980, Комедия, DVDRip] [MVO] торрент без регистрации

 
Статистика раздачи
Размер:  1,37 GB   |    Скачан:  200 раз
Сидов:  1  [  0 KB/s  ]   Личеров:  3  [  0 KB/s  ]  
 
Автор Сообщение

dezertir

[] 


Фантоцци против всех / Fantozzi contro tutti


Год выпуска: 1980
Выпущено: Италия, Rizzoli Film
Жанр: Комедия
Продолжительность: 01:33:34
Перевод: Профессиональный (многоголосый)
Субтитры: Нет

Режиссер: Паоло Вилладжо, Нери Паренти

В ролях: Паоло Вилладжо, Милена Вукотич, Жижи Редер, Камилло Милли, Пол Мюллер, Плинио Фернандо, Гуэррино Кривелло, Анджело Пеллегрино, Пьетро Дзардини, Диего Абатантуоно, Джузеппе Анатрелли

Описание: Третий фильм о злоключениях бухгалтера Уго Фантоцци. К унижениям на работе, опять добавляются личные проблемы. Ночи, проведенные перед телевизором в поисках какого-нибудь эротического фильма… Забавная слежка за женой, увлеченной брутальным булочником. Существование туповатого Фантоцци — настоящая одиссея грустных, и в тоже время, необычайно смешных событий.



Качество: DVDRip
Формат: AVI
Видео кодек: XviD
Аудио кодек: AC3
Видео: XviD, 1894 Кбит/с, 720x400, 25 fps
Аудио: АС3, 2 ch, 192 Кбит/с



Complete name : F:Fantoci protiv vseh.1980.XviD.DVDRip.avi
Format : AVI
Format/Info : Audio Video Interleave
File size : 1.37 GiB
Duration : 1h 33mn
Overall bit rate : 2 092 Kbps
Writing application : VirtualDubMod 1.5.4.1 (build 2178/release)
Writing library : VirtualDubMod build 2178/release

Video
ID : 0
Format : MPEG-4 Visual
Format profile : Advanced Simple@L5
Format settings, BVOP : 1
Format settings, QPel : No
Format settings, GMC : No warppoints
Format settings, Matrix : Custom
Codec ID : XVID
Codec ID/Hint : XviD
Duration : 1h 33mn
Bit rate : 1 894 Kbps
Width : 720 pixels
Height : 400 pixels
Display aspect ratio : 16:9
Frame rate : 25.000 fps
Color space : YUV
Chroma subsampling : 4:2:0
Bit depth : 8 bits
Scan type : Progressive
Compression mode : Lossy
Bits/(Pixel*Frame) : 0.263
Stream size : 1.24 GiB (90%)
Writing library : XviD 1.1.2 (UTC 2006-11-01)

Audio
ID : 1
Format : AC-3
Format/Info : Audio Coding 3
Mode extension : CM (complete main)
Format settings, Endianness : Big
Codec ID : 2000
Duration : 1h 33mn
Bit rate mode : Constant
Bit rate : 192 Kbps
Channel(s) : 2 channels
Channel positions : Front: L R
Sampling rate : 48.0 KHz
Bit depth : 16 bits
Compression mode : Lossy
Stream size : 128 MiB (9%)
Alignment : Split accross interleaves
Interleave, duration : 96 ms (2.40 video frames)
Interleave, preload duration : 96 ms
Language : Russian





Скачать Фантоцци.против.всех.Fantozzi.contro.tutti.(Паоло.Вилладжо.Нери.Паренти).[1980.Комедия.DVDRip].[MVO].torrent без регистрации
Золото ЗОЛОТАЯ РАЗДАЧА! СКАЧАННОЕ НЕ ЗАСЧИТЫВАЕТСЯ! Золото
Дата: Зарегистрирован   [ Тип: внешний ] Как тут cкачать?
MAGNET ссылка
MAGNET ссылка


Скачать .torrent

14 KB

Статус: * не проверено
Скачан: торрент - 200 раз, раздача полностью - 146 раз
Размер: 1,37 GB
Оценка:  5 (Голосов: 1)
Поблагодарили: 1
Поделиться ссылкой на эту раздачу с друзьями:
В контактеFacebookОдноклассникиTwitterLivejournalМой МирLiveinternet
 

 
Показать сообщения:    


Вы не можете начинать темы
Вы не можете отвечать на сообщения
Вы не можете редактировать свои сообщения
Вы не можете удалять свои сообщения
Вы не можете голосовать в опросах
Вы не можете прикреплять файлы к сообщениям
Вы можете скачивать файлы