Loading...
Error

Скачать Только ты / Only You (Норман Джуисон / Norman Jewison) [1994, мелодрама, комедия, WEB-DLRip] [AVO] (А.Гаврилов) торрент без регистрации

 
Статистика раздачи
Размер:  1,46 GB   |    Скачан:  118 раз
Сидов:  1  [  0 KB/s  ]  
 
Автор Сообщение

leon030982

[] 

Только ты / Only You

Год выпуска: 1994
Страна: США, Италия
Жанр: мелодрама, комедия
Продолжительность: 01:48:24
Перевод: Авторский (одноголосый, закадровый) [Андрей Гаврилов]
Cубтитры: нет

Режиссер: Норман Джуисон / Norman Jewison

В ролях: Мариса Томей, Роберт Дауни мл., Бонни Хант, Жоаким ди Алмейда, Фишер Стивенс, Билли Зейн, Адам ЛеФевр, Джон Бенжамин Хикки, Шаван Фэллон, Антония Рей

Описание: Школьная учительница Фэйт Корвач знала точно, что имя ее нареченного — Дэймон Брэдли. Ей это предсказала цыганка 14 лет назад. Но время шло, а суженный на горизонте все не появлялся, и Фэйт обручилась с ортопедом.
И именно в это время, как гром среди ясного неба, раздался телефонный звонок от друга ее жениха, направляющегося в Венецию. Он назвался Дэймоном Брэдли. Фэйт, не долго думая, бросила все и помчалась в аэропорт, догонять свое улетевшее в Италию счастье…



Качество видео: WEB-DLRip
Формат видео: AVI
Видео кодек: XviD
Аудио кодек: AC3
Видео: 704x400 (1.76:1), 23.976 fps, XviD build 73 ~1732 kbps avg, 0.26 bit/pixel
Аудио: 48 kHz, AC3 Dolby Digital, 2/0 (L,R) ch, ~192 kbps

Автор рипа -- JIuI3epIIyJIb
за дорогу Гаврилова большое спасибо _int_, в связи с отсутствием перевода на отрезке 01:25:55-01:26:19 была сделана вставка с одноголосого перевода
Полное имя : Только ты 1994.avi
Формат : AVI
Формат/Информация : Audio Video Interleave
Размер файла : 1,46 Гбайт
Продолжительность : 1 ч. 48 м.
Общий поток : 1934 Кбит/сек
Программа кодирования : VirtualDubMod 1.5.10.2 (build 2540/release)
Библиотека кодирования : VirtualDubMod build 2540/release
Видео
Идентификатор : 0
Формат : MPEG-4 Visual
Профиль формата : Advanced Simple@L5
Параметр BVOP формата : 2
Параметр QPel формата : Нет
Параметр GMC формата : Без точки перехода
Параметр матрицы формата : Выборочная
Идентификатор кодека : XVID
Идентификатор кодека/Подсказка : XviD
Продолжительность : 1 ч. 48 м.
Битрейт : 1732 Кбит/сек
Ширина : 704 пикселя
Высота : 400 пикселей
Соотношение сторон : 16:9
Частота кадров : 23,976 кадра/сек
Цветовое пространство : YUV
Субдискретизация насыщенности : 4:2:0
Битовая глубина : 8 бит
Тип развёртки : Прогрессивная
Метод сжатия : С потерями
Бит/(Пиксели*Кадры) : 0.257
Размер потока : 1,31 Гбайт (90%)
Библиотека кодирования : XviD 73
Аудио
Идентификатор : 1
Формат : AC-3
Формат/Информация : Audio Coding 3
Расширение режима : CM (complete main)
Параметр Endianness формата : Big
Идентификатор кодека : 2000
Продолжительность : 1 ч. 48 м.
Вид битрейта : Постоянный
Битрейт : 192 Кбит/сек
Каналы : 2 канала
Расположение каналов : Front: L R
Частота : 48,0 КГц
Битовая глубина : 16 бит
Метод сжатия : С потерями
Размер потока : 149 Мбайт (10%)
Выравнивание : Разделение по промежуткам
Продолжительность промежутка : 42 мс. (1,00 видеокадр)
Время предзагрузки промежутка : 500 мс.



Скачать Только.ты.Only.You.(Норман.Джуисон.Norman.Jewison).[1994.мелодрама.комедия.WEB-DLRip].[AVO].(А.Гаврилов).torrent без регистрации
Золото ЗОЛОТАЯ РАЗДАЧА! СКАЧАННОЕ НЕ ЗАСЧИТЫВАЕТСЯ! Золото
Дата: Зарегистрирован   [ Тип: внутренний ] Как тут cкачать?
MAGNET ссылка
MAGNET ссылка


Скачать .torrent

15 KB

Статус: проверено DHT
Скачан: торрент - 118 раз, раздача полностью - 10 раз
Размер: 1,46 GB
Оценка:  5 (Голосов: 1)
Поблагодарили: 0
Поделиться ссылкой на эту раздачу с друзьями:
В контактеFacebookОдноклассникиTwitterLivejournalМой МирLiveinternet
 

 
Показать сообщения:    


Вы не можете начинать темы
Вы не можете отвечать на сообщения
Вы не можете редактировать свои сообщения
Вы не можете удалять свои сообщения
Вы не можете голосовать в опросах
Вы не можете прикреплять файлы к сообщениям
Вы можете скачивать файлы