Loading...
Error

Скачать Прямая и явная угроза / Clear and Present Danger (Филлип Нойс / Phillip Noyce) [1994, Боевик, триллер, драма, экранизация, BDRip] 4x[AVO] (Гаврилов, Живов, Горчаков, Володарский) торрент без регистрации

 
Статистика раздачи
Размер:  2,03 GB   |    Скачан:  106 раз
Сидов:  1  [  0 KB/s  ]  
 
Автор Сообщение

leon030982

[] 

Прямая и явная угроза / Clear and Present Danger


Год выпуска: 1994
Страна: США
Жанр: Боевик, триллер, драма, экранизация
Продолжительность: 02:21:16
Перевод №1: Авторский (одноголосный) [Андрей Гаврилов]
Перевод №2: Авторский (одноголосный) [Юрий Живов]
Перевод №3: Авторский (одноголосный) [Василий Горчаков]
Перевод №4: Авторский (одноголосный) [Леонид Володарский]
Cубтитры: нет
Оригинальная аудиодорожка: нет

Режиссер: Филлип Нойс / Phillip Noyce

В ролях: Хэррисон Форд / Harrison Ford, Уиллем Дефо / Willem Dafoe, Энн Арчер / Anne Archer, Хоаким де Альмейда / Joaquim de Almeida, Хенри Черни / Henry Czerny, Харрис Юлин / Harris Yulin, Тора Берч / Thora Birch, Джеймс Эрл Джоунс / James Earl Jones, Мигель Сандовал / Miguel Sandoval, Бенджамин Братт / Benjamin Bratt, Доналд Моффэт / Donald Moffat

Описание: Экранизация романа Тома Клэнси не оставит равнодушным любителей масштабных политических триллеров. Харрисон Форд как всегда уместен в роли стопроцентного американца, ходячего сосредоточения добродетелей, для которого даже президент США не фигура, если тот ведет нечестную игру. Герой Форда, крупный чин из ЦРУ, истово и изобретательно сражается как с кокаиновой мафией, так и с подгнившим вашингтонским истеблишментом, рискуя жизнью и карьерой ради одного — правды. Колумбийские эпизоды сняты кудесником кинокамеры Дональдом Макалпайном просто потрясающе.



Качество видео: BDRip
Формат видео: AVI
Видео кодек: XviD
Аудио кодек: AC3
Видео: 720x320 (2.25:1), 23.976 fps, XviD build 50 ~1280 kbps avg, 0.20 bit/pixel
Аудио #1: 48 kHz, AC3 Dolby Digital, 2/0 (L,R) ch, ~192 kbps [Андрей Гаврилов]
Аудио #2: 48 kHz, AC3 Dolby Digital, 2/0 (L,R) ch, ~192 kbps [Юрий Живов]
Аудио #3: 48 kHz, AC3 Dolby Digital, 2/0 (L,R) ch, ~192 kbps [Василий Горчаков]
Аудио #4: 48 kHz, AC3 Dolby Digital, 2/0 (L,R) ch, ~192 kbps [Леонид Володарский]

Код:

Общее
Полное имя : B:\Торрент\Prjamaja.i.javnaja.ugroza.1994.XviD.BDRip.avi
Формат : AVI
Формат/Информация : Audio Video Interleave
Профиль формата : OpenDML
Настройки формата : rec
Размер файла : 2,03 Гбайт
Продолжительность : 2 ч. 21 м.
Общий поток : 2059 Кбит/сек
Программа кодирования : AVI-Mux GUI 1.17.8.3, Feb 16 201019:42:50

Видео
Идентификатор : 0
Формат : MPEG-4 Visual
Профиль формата : Advanced Simple@L5
Параметр BVOP формата : 1
Параметр QPel формата : Нет
Параметр GMC формата : Без точки перехода
Параметр матрицы формата : Выборочная
Идентификатор кодека : XVID
Идентификатор кодека/Подсказка : XviD
Продолжительность : 2 ч. 21 м.
Битрейт : 1280 Кбит/сек
Ширина : 720 пикс.
Высота : 320 пикс.
Соотношение сторон : 2,25:1
Частота кадров : 23,976 кадр/сек
Цветовое пространство : YUV
Подвыборка цветности : 4:2:0
Битовая глубина : 8 бит
Тип развёртки : Прогрессивная
Метод сжатия : С потерями
Бит/(Пиксели*Кадры) : 0.232
Размер потока : 1,26 Гбайт (62%)
Библиотека кодирования : XviD 1.2.1 (UTC 2008-12-04)

Аудио #1
Идентификатор : 1
Формат : AC-3
Формат/Информация : Audio Coding 3
Расширение режима : CM (complete main)
Идентификатор кодека : 2000
Продолжительность : 2 ч. 21 м.
Вид битрейта : Постоянный
Битрейт : 192 Кбит/сек
Канал(ы) : 2 канала(ов)
Расположение каналов : Front: L R
Частота : 48,0 КГц
Битовая глубина : 16 бит
Метод сжатия : С потерями
Размер потока : 194 Мбайт (9%)
Выравнивание : Соединение по промежуткам
Продолжительность промежутка : 64 мс. (1,53 видеокадров)
Время предзагрузки промежутка : 192 ms
Заголовок : Гаврилов

Аудио #2
Идентификатор : 2
Формат : AC-3
Формат/Информация : Audio Coding 3
Расширение режима : CM (complete main)
Идентификатор кодека : 2000
Продолжительность : 2 ч. 21 м.
Вид битрейта : Постоянный
Битрейт : 192 Кбит/сек
Канал(ы) : 2 канала(ов)
Расположение каналов : Front: L R
Частота : 48,0 КГц
Битовая глубина : 16 бит
Метод сжатия : С потерями
Размер потока : 194 Мбайт (9%)
Выравнивание : Соединение по промежуткам
Продолжительность промежутка : 64 мс. (1,53 видеокадров)
Время предзагрузки промежутка : 192 ms
Заголовок : Живов

Аудио #3
Идентификатор : 3
Формат : AC-3
Формат/Информация : Audio Coding 3
Расширение режима : CM (complete main)
Идентификатор кодека : 2000
Продолжительность : 2 ч. 21 м.
Вид битрейта : Постоянный
Битрейт : 192 Кбит/сек
Канал(ы) : 2 канала(ов)
Расположение каналов : Front: L R
Частота : 48,0 КГц
Битовая глубина : 16 бит
Метод сжатия : С потерями
Размер потока : 194 Мбайт (9%)
Выравнивание : Соединение по промежуткам
Продолжительность промежутка : 64 мс. (1,53 видеокадров)
Время предзагрузки промежутка : 192 ms
Заголовок : Горчаков

Аудио #4
Идентификатор : 4
Формат : AC-3
Формат/Информация : Audio Coding 3
Расширение режима : CM (complete main)
Идентификатор кодека : 2000
Продолжительность : 2 ч. 21 м.
Вид битрейта : Постоянный
Битрейт : 192 Кбит/сек
Канал(ы) : 2 канала(ов)
Расположение каналов : Front: L R
Частота : 48,0 КГц
Битовая глубина : 16 бит
Метод сжатия : С потерями
Размер потока : 194 Мбайт (9%)
Выравнивание : Соединение по промежуткам
Продолжительность промежутка : 64 мс. (1,53 видеокадров)
Время предзагрузки промежутка : 192 ms
Заголовок : Володарский



Скачать Прямая.и.явная.угроза.Clear.and.Present.Danger.(Филлип.Нойс.Phillip.Noyce).[1994.Боевик.триллер.драма.экранизация.BDRip].4x[AVO].(Гаврилов.Живов.Горчаков.Володарский).torrent без регистрации
Золото ЗОЛОТАЯ РАЗДАЧА! СКАЧАННОЕ НЕ ЗАСЧИТЫВАЕТСЯ! Золото
Дата: Зарегистрирован   [ Тип: внутренний ] Как тут cкачать?
MAGNET ссылка
MAGNET ссылка


Скачать .torrent

11 KB

Статус: проверено DHT
Скачан: торрент - 106 раз, раздача полностью - 5 раз
Размер: 2,03 GB
Оценка:  - (Голосов: 0)
Поблагодарили: 0
Поделиться ссылкой на эту раздачу с друзьями:
В контактеFacebookОдноклассникиTwitterLivejournalМой МирLiveinternet
 

 
Показать сообщения:    


Вы не можете начинать темы
Вы не можете отвечать на сообщения
Вы не можете редактировать свои сообщения
Вы не можете удалять свои сообщения
Вы не можете голосовать в опросах
Вы не можете прикреплять файлы к сообщениям
Вы можете скачивать файлы